<?xml version="1.0" standalone="no"?>
<!DOCTYPE svg PUBLIC "-//W3C//DTD SVG 1.1//EN" "http://www.w3.org/Graphics/SVG/1.1/DTD/svg11.dtd" >
<svg xmlns="http://www.w3.org/2000/svg" xmlns:xlink="http://www.w3.org/1999/xlink" version="1.1">
<metadata>
Created by FontForge 20190801 at Wed May 25 14:25:54 2022
 By www-data
Copyright (c) 2019-2022 by Mercedes-Benz Group AG. All rights reserved.
</metadata>
<defs>
<font id="MBCorpoSTitleCondOfficeBold" horiz-adv-x="500" >
  <font-face 
    font-family="MBCorpoSTitleCondOfficeBold"
    font-weight="700"
    font-stretch="condensed"
    units-per-em="1000"
    panose-1="2 11 8 6 7 0 0 0 0 3"
    ascent="824"
    descent="-176"
    x-height="484"
    cap-height="668"
    bbox="-548 -210 997 993"
    underline-thickness="98"
    underline-position="-120"
    unicode-range="U+000D-FEFF"
  />
<missing-glyph horiz-adv-x="583" 
d="M109 803h365l8 -8v-923l-8 -8h-365l-8 8v923zM466 -120v907h-349v-907h349z" />
    <glyph glyph-name=".notdef" horiz-adv-x="583" 
d="M109 803h365l8 -8v-923l-8 -8h-365l-8 8v923zM466 -120v907h-349v-907h349z" />
    <glyph glyph-name=".null" horiz-adv-x="0" 
 />
    <glyph glyph-name="nonmarkingreturn" unicode="&#xd;" horiz-adv-x="150" 
 />
    <glyph glyph-name="space" unicode=" " horiz-adv-x="150" 
 />
    <glyph glyph-name="exclam" unicode="!" horiz-adv-x="219" 
d="M44 540v128h133v-128l-29 -317h-79zM53.5 11q-22.5 21 -22.5 53q0 34 22 55t57 21t57 -21t22 -55q0 -32 -22 -53t-57 -21q-34 0 -56.5 21z" />
    <glyph glyph-name="quotedbl" unicode="&#x22;" horiz-adv-x="342" 
d="M102 428h-67l-21 176v64h110v-64zM279 428h-67l-21 176v64h110v-64z" />
    <glyph glyph-name="numbersign" unicode="#" horiz-adv-x="465" 
d="M444 492v-86h-75l-14 -136h74v-86h-83l-19 -184h-92l19 184h-75l-19 -184h-92l19 184h-65v86h74l14 136h-73v86h82l18 176h92l-18 -176h75l18 176h92l-18 -176h66zM188 270h75l14 136h-75z" />
    <glyph glyph-name="dollar" unicode="$" 
d="M412.5 65.5q-42.5 -46.5 -112.5 -60.5v-93h-86v90q-60 9 -105.5 45.5t-65.5 99.5l86 44q16 -45 46 -68.5t70 -23.5q43 0 64 18.5t21 53.5q0 32 -18.5 51t-64.5 47l-56 36q-68 42 -101.5 85t-33.5 105q0 65 43 112.5t115 57.5v84h86v-86q91 -22 139 -126l-86 -46
q-16 34 -42.5 56t-58.5 22t-51 -17t-19 -48q0 -28 19 -48.5t64 -49.5l57 -36q62 -40 97.5 -84t35.5 -106q0 -68 -42.5 -114.5z" />
    <glyph glyph-name="percent" unicode="%" horiz-adv-x="696" 
d="M132 0l340 668h92l-341 -668h-91zM59 355.5q-39 49.5 -39 137.5t38.5 137.5t102.5 49.5t103 -49.5t39 -137.5t-39 -137.5t-103 -49.5q-63 0 -102 49.5zM195.5 402q11.5 26 11.5 91t-11.5 91.5t-34.5 26.5t-34.5 -26.5t-11.5 -91.5t11.5 -91t34.5 -26t34.5 26zM432.5 37.5
q-38.5 49.5 -38.5 137.5t38.5 137.5t102.5 49.5t102.5 -49.5t38.5 -137.5t-38.5 -137.5t-102.5 -49.5t-102.5 49.5zM569.5 84q11.5 26 11.5 91t-11.5 91.5t-34.5 26.5t-34.5 -26.5t-11.5 -91.5t11.5 -91t34.5 -26t34.5 26z" />
    <glyph glyph-name="ampersand" unicode="&#x26;" horiz-adv-x="472" 
d="M481 0h-138l-31 49q-26 -31 -57 -46t-71 -15q-78 0 -119.5 47t-41.5 116q0 60 27.5 104.5t76.5 80.5l-10 15q-25 39 -41 81.5t-16 82.5q0 51 20 88.5t54 57t75 19.5q60 0 100.5 -39.5t40.5 -111.5q0 -54 -23 -95.5t-70 -84.5l76 -119q15 52 22 130h76q-6 -124 -44 -213z
M187.5 578q-11.5 -18 -11.5 -51q0 -27 10.5 -53.5t29.5 -59.5q44 49 44 113q0 33 -11 51t-30 18q-20 0 -31.5 -18zM266 120l-94 146q-28 -41 -28 -102q0 -38 15.5 -63t44.5 -25q35 0 62 44z" />
    <glyph glyph-name="quotesingle" unicode="'" horiz-adv-x="164" 
d="M115 428h-67l-21 176v64h110v-64z" />
    <glyph glyph-name="parenleft" unicode="(" horiz-adv-x="253" 
d="M180 -190q-72 86 -113.5 196t-41.5 256t41.5 255.5t113.5 196.5l73 -33q-118 -180 -118 -419q0 -241 118 -418z" />
    <glyph glyph-name="parenright" unicode=")" horiz-adv-x="253" 
d="M0 -156q119 179 119 418q0 237 -119 419l73 33q73 -87 114 -196.5t41 -255.5t-41.5 -256t-113.5 -196z" />
    <glyph glyph-name="asterisk" unicode="*" horiz-adv-x="332" 
d="M134 581v99h64v-99l89 34l24 -59l-91 -36l63 -79l-51 -40l-66 84l-65 -85l-52 41l62 79l-90 36l24 59z" />
    <glyph glyph-name="plus" unicode="+" 
d="M301 353h157v-97h-157v-165h-103v165h-156v97h156v165h103v-165z" />
    <glyph glyph-name="comma" unicode="," horiz-adv-x="209" 
d="M162.5 109.5q23.5 -30.5 23.5 -77.5q0 -75 -41.5 -124.5t-114.5 -50.5v51q37 1 61 25.5t27 58.5q-12 -2 -19 -2q-33 0 -55 21t-22 54t22 54t55 21q40 0 63.5 -30.5z" />
    <glyph glyph-name="hyphen" unicode="-" horiz-adv-x="292" 
d="M253 234h-214v91h214v-91z" />
    <glyph glyph-name="period" unicode="." horiz-adv-x="202" 
d="M44.5 11q-22.5 21 -22.5 53q0 34 22 55t57 21t57 -21t22 -55q0 -32 -22 -53t-57 -21q-34 0 -56.5 21z" />
    <glyph glyph-name="slash" unicode="/" horiz-adv-x="357" 
d="M12 -95l231 763h102l-231 -763h-102z" />
    <glyph glyph-name="zero" unicode="0" 
d="M138 25q-49 37 -77.5 114.5t-28.5 194.5q0 118 28.5 195.5t77.5 114t112 36.5t112 -36.5t77.5 -114t28.5 -195.5q0 -117 -28.5 -194.5t-77.5 -114.5t-112 -37t-112 37zM312.5 145q21.5 58 21.5 189t-21.5 189t-62.5 58q-40 0 -62 -58t-22 -189t22 -189t62 -58
q41 0 62.5 58z" />
    <glyph glyph-name="one" unicode="1" 
d="M331 100h110v-100h-362v100h124v389q-24 -10 -53 -14t-71 -4v89q78 2 114.5 29.5t44.5 78.5h93v-568z" />
    <glyph glyph-name="two" unicode="2" 
d="M442 107v-107h-386v95q144 139 198.5 230.5t54.5 171.5q0 38 -18.5 61t-51.5 23q-43 0 -59.5 -34.5t-13.5 -85.5h-105q-3 104 46 161.5t145 57.5q52 0 94.5 -22.5t66.5 -64.5t24 -96q0 -85 -60.5 -173t-196.5 -217h262z" />
    <glyph glyph-name="three" unicode="3" 
d="M414 294q35 -45 35 -109q0 -59 -27.5 -104t-76.5 -69t-110 -24q-83 0 -133.5 45t-60.5 133l95 19q7 -48 30 -74t67 -26q42 0 67 28.5t25 79.5q0 49 -28.5 77.5t-71.5 28.5h-43v94h47q37 0 60.5 27.5t23.5 72.5q0 40 -20 65.5t-58 25.5q-68 0 -86 -83l-95 21
q14 73 61.5 115.5t128.5 42.5q54 0 97 -22t67.5 -62.5t24.5 -92.5q0 -57 -29 -94.5t-73 -53.5q48 -16 83 -61z" />
    <glyph glyph-name="four" unicode="4" 
d="M392 221h68v-92h-68v-129h-122v129h-238v89l228 450h132v-447zM273 221v308l-156 -308h156z" />
    <glyph glyph-name="five" unicode="5" 
d="M363 409.5q39 -25.5 61.5 -74.5t22.5 -117q0 -74 -28 -126t-75 -78t-103 -26q-75 0 -125.5 44.5t-65.5 125.5l95 19q12 -44 35 -67t55 -23q39 0 62 31t23 94q0 61 -22.5 92.5t-56.5 31.5q-52 0 -84 -63l-93 16l41 379h316v-107h-227l-20 -171q35 45 101 45q49 0 88 -25.5
z" />
    <glyph glyph-name="six" unicode="6" 
d="M413 377q47 -58 47 -158q0 -71 -25.5 -123.5t-70.5 -80t-103 -27.5q-93 0 -154.5 75t-61.5 250q0 112 27 195t78 127.5t123 44.5q67 0 114 -42t58 -116l-95 -21q-7 37 -26.5 58.5t-49.5 21.5q-46 0 -70.5 -49.5t-28.5 -161.5q18 30 47 47.5t68 17.5q76 0 123 -58z
M313 120.5q20 33.5 20 91.5t-20 91t-57 33t-57.5 -33.5t-20.5 -90.5t21 -91t57 -34q37 0 57 33.5z" />
    <glyph glyph-name="seven" unicode="7" 
d="M59 668h378v-102q-157 -199 -164 -566h-137q1 161 54.5 310.5t140.5 250.5h-272v107z" />
    <glyph glyph-name="eight" unicode="8" 
d="M433 280.5q28 -40.5 28 -104.5q0 -56 -28 -98.5t-76 -66t-104 -23.5q-60 0 -109 22t-77 62t-28 94q0 56 27.5 97t79.5 72q-42 27 -65.5 66t-23.5 99q0 49 24 90t68 65.5t102 24.5q54 0 98 -22t69 -61.5t25 -89.5q0 -96 -88 -154q50 -32 78 -72.5zM201 562
q-20 -22 -20 -53q0 -36 20 -59t58 -44l15 -8q58 45 58 109q0 33 -22 55t-55 22q-34 0 -54 -22zM309 106.5q26 22.5 26 62.5q0 27 -14 47.5t-32.5 33.5t-58.5 38q-36 -23 -55.5 -54.5t-19.5 -64.5q0 -39 25.5 -62t63.5 -23q39 0 65 22.5z" />
    <glyph glyph-name="nine" unicode="9" 
d="M348.5 651q46.5 -29 72.5 -84.5t26 -132.5q0 -221 -223 -450l-106 35q127 135 172 245q-31 -23 -71 -23q-46 0 -87 25.5t-65.5 73.5t-24.5 112q0 69 25.5 120.5t70.5 79.5t104 28q60 0 106.5 -29zM300 374q20 34 20 87q0 52 -20 86t-56 34t-55.5 -34t-19.5 -86
q0 -53 19.5 -87t55.5 -34t56 34z" />
    <glyph glyph-name="colon" unicode=":" horiz-adv-x="229" 
d="M57.5 364q-22.5 21 -22.5 53q0 34 22 55t57 21t57 -21t22 -55q0 -32 -22 -53t-57 -21q-34 0 -56.5 21zM57.5 11q-22.5 21 -22.5 53q0 34 22 55t57 21t57 -21t22 -55q0 -32 -22 -53t-57 -21q-34 0 -56.5 21z" />
    <glyph glyph-name="semicolon" unicode=";" horiz-adv-x="232" 
d="M174.5 109.5q23.5 -30.5 23.5 -77.5q0 -75 -41.5 -124.5t-114.5 -50.5v51q37 1 61 25.5t27 58.5q-12 -2 -19 -2q-33 0 -55 21t-22 54t22 54t55 21q40 0 63.5 -30.5zM59.5 364q-22.5 21 -22.5 53q0 34 22 55t57 21t57 -21t22 -55q0 -32 -22 -53t-57 -21q-34 0 -56.5 21z
" />
    <glyph glyph-name="less" unicode="&#x3c;" 
d="M68 351l354 166v-103l-253 -110l253 -110v-103l-354 167v93z" />
    <glyph glyph-name="equal" unicode="=" 
d="M448 353h-396v94h396v-94zM448 162h-396v94h396v-94z" />
    <glyph glyph-name="greater" unicode="&#x3e;" 
d="M78 414v103l354 -166v-93l-354 -167v103l253 110z" />
    <glyph glyph-name="question" unicode="?" horiz-adv-x="369" 
d="M299 633q47 -47 47 -133q0 -63 -30 -111.5t-83 -77.5v-93h-108v130q88 47 88 149q0 82 -47 82q-24 0 -35.5 -23t-11.5 -61h-101q0 89 43 137t118 48q73 0 120 -47zM236 119q22 -21 22 -55q0 -32 -22 -53t-57 -21q-34 0 -56.5 21t-22.5 53q0 34 22 55t57 21t57 -21z" />
    <glyph glyph-name="at" unicode="@" horiz-adv-x="647" 
d="M492 615q60 -40 94 -113t34 -169q0 -33 -2 -50q-7 -76 -31.5 -133t-60 -87.5t-75.5 -30.5q-39 0 -61.5 20t-28.5 56q-35 -66 -91 -66q-48 0 -78 44.5t-30 127.5q0 27 3 57q8 68 30.5 115.5t53 70.5t63.5 23q26 0 45 -16.5t29 -47.5l7 52h106l-43 -299q-3 -16 -3 -31
q0 -37 24 -37q17 0 33 23.5t28 69t15 108.5q1 11 1 31q0 120 -53 191.5t-146 71.5q-68 0 -124 -39t-91.5 -115t-42.5 -183q-1 -15 -1 -43q0 -134 56.5 -212t162.5 -78q47 0 87 14t64 38l35 -47q-34 -31 -83 -47.5t-109 -16.5q-87 0 -151 42.5t-99 120.5t-35 182q0 16 2 48
q11 126 57.5 215.5t118 134.5t156.5 45q74 0 134 -40zM341 156.5q18 34.5 26 100.5q4 35 4 66q0 77 -34 77q-20 0 -38.5 -34.5t-26.5 -100.5q-4 -33 -4 -64q0 -79 35 -79q20 0 38 34.5z" />
    <glyph glyph-name="A" unicode="A" horiz-adv-x="499" 
d="M495 0h-137l-33 142h-171l-34 -142h-115l174 668h141zM241 511l-65 -276h128z" />
    <glyph glyph-name="B" unicode="B" horiz-adv-x="472" 
d="M416.5 298q31.5 -44 31.5 -106q0 -60 -26 -103.5t-71 -66t-101 -22.5h-200v668h174q95 0 148 -45.5t53 -124.5q0 -48 -24.5 -83.5t-67.5 -54.5q52 -18 83.5 -62zM180 572v-182h38q38 0 59.5 23.5t21.5 67.5q0 45 -21.5 68t-59.5 23h-38zM229 96q40 0 62 25t22 76
q0 50 -22.5 75.5t-61.5 25.5h-49v-202h49z" />
    <glyph glyph-name="C" unicode="C" horiz-adv-x="472" 
d="M193 151q27 -59 73 -59q34 0 57 30.5t35 98.5l100 -22q-18 -114 -69.5 -162.5t-128.5 -48.5q-62 0 -114.5 37.5t-84.5 115.5t-32 194t32 193.5t84.5 114.5t114.5 37q74 0 125.5 -46.5t67.5 -148.5l-99 -22q-12 60 -34 86.5t-54 26.5q-46 0 -73 -58.5t-27 -182.5
q0 -125 27 -184z" />
    <glyph glyph-name="D" unicode="D" horiz-adv-x="529" 
d="M373.5 629q59.5 -39 93.5 -114.5t34 -180.5t-34 -180.5t-93.5 -114.5t-133.5 -39h-190v668h190q74 0 133.5 -39zM225 100q66 0 103 58.5t37 175.5t-37 175.5t-103 58.5h-45v-468h45z" />
    <glyph glyph-name="E" unicode="E" horiz-adv-x="422" 
d="M180 295v-195h211v-100h-341v668h336v-100h-206v-175h191v-98h-191z" />
    <glyph glyph-name="F" unicode="F" horiz-adv-x="407" 
d="M381 668v-100h-201v-191h182v-97h-182v-280h-130v668h331z" />
    <glyph glyph-name="G" unicode="G" horiz-adv-x="518" 
d="M264 346h219v-285q-40 -32 -92.5 -52.5t-106.5 -20.5q-119 0 -187.5 86.5t-68.5 259.5q0 115 32 192.5t87.5 115.5t127.5 38q78 0 133 -46t70 -129l-97 -24q-25 95 -100 95q-54 0 -85 -58t-31 -184q0 -127 30.5 -186t88.5 -59q44 0 83 27v134h-103v96z" />
    <glyph glyph-name="H" unicode="H" horiz-adv-x="518" 
d="M338 393v275h130v-668h-130v295h-158v-295h-130v668h130v-275h158z" />
    <glyph glyph-name="I" unicode="I" horiz-adv-x="230" 
d="M50 0v668h130v-668h-130z" />
    <glyph glyph-name="J" unicode="J" horiz-adv-x="295" 
d="M5 -110v106q24 -6 50 -6q61 0 61 76v602h130v-621q0 -82 -43.5 -123t-120.5 -41q-43 0 -77 7z" />
    <glyph glyph-name="K" unicode="K" horiz-adv-x="486" 
d="M496 0h-148l-149 298h-19v-298h-130v668h130v-271h17l164 271h119l-183 -295z" />
    <glyph glyph-name="L" unicode="L" horiz-adv-x="393" 
d="M180 668v-568h200v-100h-330v668h130z" />
    <glyph glyph-name="M" unicode="M" horiz-adv-x="657" 
d="M334 208l86 460h187v-668h-120v527l-106 -527h-118l-108 515v-515h-105v668h195z" />
    <glyph glyph-name="N" unicode="N" horiz-adv-x="530" 
d="M371 200v468h109v-668h-165l-156 467v-467h-109v668h164z" />
    <glyph glyph-name="O" unicode="O" horiz-adv-x="546" 
d="M146 26.5q-55 38.5 -86 116t-31 191.5t31 192t86 116t127 38t127 -38.5t86.5 -116t31.5 -191.5t-31.5 -191.5t-86.5 -116t-127 -38.5t-127 38.5zM352 150.5q29 58.5 29 183.5t-29 183.5t-79 58.5t-79 -58.5t-29 -183.5t29 -183.5t79 -58.5t79 58.5z" />
    <glyph glyph-name="P" unicode="P" horiz-adv-x="464" 
d="M340 644q49 -24 77 -70.5t28 -111.5t-28 -112t-77 -71.5t-111 -24.5h-49v-254h-130v668h179q62 0 111 -24zM220 351q41 0 65 27.5t24 81.5t-24 81t-65 27h-40v-217h40z" />
    <glyph glyph-name="Q" unicode="Q" horiz-adv-x="546" 
d="M537 -90h-156l-59 83q-27 -5 -49 -5q-72 0 -127 38.5t-86 116t-31 191.5t31 192t86 116t127 38t127 -38.5t86.5 -116t31.5 -191.5q0 -96 -22.5 -166.5t-64.5 -114.5zM194 150.5q29 -58.5 79 -58.5t79 58.5t29 183.5t-29 183.5t-79 58.5t-79 -58.5t-29 -183.5t29 -183.5z
" />
    <glyph glyph-name="R" unicode="R" horiz-adv-x="477" 
d="M331 0l-116 267h-35v-267h-130v668h177q58 0 106 -23t76.5 -67.5t28.5 -106.5t-28 -107.5t-76 -68.5l143 -295h-146zM180 570v-205h38q39 0 61.5 25.5t22.5 77.5q0 50 -22.5 76t-61.5 26h-38z" />
    <glyph glyph-name="S" unicode="S" horiz-adv-x="449" 
d="M103 185q16 -47 47 -71.5t64 -24.5q39 0 62.5 20t23.5 56q0 31 -22 55.5t-61 47.5l-59 37q-64 38 -95 85.5t-31 111.5q0 49 22.5 90t65 64.5t99.5 23.5q137 0 198 -139l-92 -44q-15 38 -40 60t-57 22q-31 0 -49.5 -18t-18.5 -49q0 -32 21 -55t65 -50l60 -36
q57 -36 89.5 -79t32.5 -113q0 -58 -27 -101t-74 -66.5t-105 -23.5q-66 0 -124.5 36.5t-83.5 115.5z" />
    <glyph glyph-name="T" unicode="T" horiz-adv-x="434" 
d="M420 668v-100h-137v-568h-131v568h-138v100h406z" />
    <glyph glyph-name="U" unicode="U" horiz-adv-x="495" 
d="M102.5 39q-55.5 51 -55.5 149v480h130v-472q0 -104 79 -104q40 0 60.5 24.5t20.5 79.5v472h111v-480q0 -98 -55.5 -149t-144.5 -51q-90 0 -145.5 51z" />
    <glyph glyph-name="V" unicode="V" horiz-adv-x="494" 
d="M257 176l115 492h117l-170 -668h-142l-172 668h142z" />
    <glyph glyph-name="W" unicode="W" horiz-adv-x="773" 
d="M560 184l85 484h119l-137 -668h-154l-92 470l-89 -470h-145l-139 668h138l89 -483l89 483h142z" />
    <glyph glyph-name="X" unicode="X" horiz-adv-x="474" 
d="M308 352l170 -352h-143l-106 228l-112 -228h-116l168 332l-164 336h142l98 -213l101 213h115z" />
    <glyph glyph-name="Y" unicode="Y" horiz-adv-x="498" 
d="M375 668h120l-181 -364v-304h-130v302l-181 366h142l115 -247z" />
    <glyph glyph-name="Z" unicode="Z" horiz-adv-x="423" 
d="M401 573l-242 -475h243v-98h-385v95l243 475h-229v98h370v-95z" />
    <glyph glyph-name="bracketleft" unicode="[" horiz-adv-x="262" 
d="M48 708h202v-87h-97v-716h97v-87h-202v890z" />
    <glyph glyph-name="backslash" unicode="\" horiz-adv-x="357" 
d="M13 668h102l231 -763h-102z" />
    <glyph glyph-name="bracketright" unicode="]" horiz-adv-x="262" 
d="M12 621v87h202v-890h-202v87h97v716h-97z" />
    <glyph glyph-name="asciicircum" unicode="^" 
d="M282 680l142 -311h-99l-75 174l-74 -174h-100l143 311h63z" />
    <glyph glyph-name="underscore" unicode="_" 
d="M500 -135h-500v90h500v-90z" />
    <glyph glyph-name="grave" unicode="`" horiz-adv-x="362" 
d="M173 668l70 -125h-64l-140 114v11h134z" />
    <glyph glyph-name="a" unicode="a" horiz-adv-x="404" 
d="M256 0l-4 61q-17 -35 -43 -53t-69 -18q-55 0 -88.5 35.5t-33.5 101.5q0 67 34 101t95 52q46 12 93 20v37q0 72 -52 72q-23 0 -39 -16.5t-17 -56.5h-94q1 76 45.5 117t114.5 41q80 0 123 -43t43 -131v-181q0 -49 8 -139h-116zM226 95q14 23 14 62v75q-19 -4 -39 -11
q-28 -10 -41.5 -29.5t-13.5 -52.5q0 -67 41 -67q25 0 39 23z" />
    <glyph glyph-name="b" unicode="b" horiz-adv-x="445" 
d="M375.5 433.5q44.5 -60.5 44.5 -191.5t-44.5 -191.5t-110.5 -60.5q-71 0 -107 73v-63h-117v668h124v-234q35 60 100 60q66 0 110.5 -60.5zM291 241q0 161 -64 161q-63 0 -63 -161q0 -160 63 -160q64 0 64 160z" />
    <glyph glyph-name="c" unicode="c" horiz-adv-x="386" 
d="M117 17.5q-43 27.5 -68 84t-25 139.5t25 140t68 84.5t96 27.5q57 0 98.5 -33t60.5 -102l-90 -32q-11 38 -26.5 56.5t-37.5 18.5q-65 0 -65 -160t66 -160q22 0 37.5 18.5t25.5 57.5l93 -27q-16 -72 -59 -106t-103 -34q-53 0 -96 27.5z" />
    <glyph glyph-name="d" unicode="d" horiz-adv-x="445" 
d="M281 668h123v-668h-117v63q-36 -73 -107 -73q-65 0 -109.5 60t-44.5 191t44.5 192t109.5 61t101 -62v236zM282 242q0 160 -64 160q-63 0 -63 -160q0 -161 63 -161q64 0 64 161z" />
    <glyph glyph-name="e" unicode="e" horiz-adv-x="419" 
d="M393 216h-240q3 -73 24 -104t58 -31q50 0 81 64l75 -47q-54 -108 -164 -108q-93 0 -147.5 63.5t-54.5 188.5t52 188.5t138 63.5q83 0 131.5 -62t48.5 -182q0 -12 -2 -34zM154 290h117q-3 62 -16 89t-40 27q-53 0 -61 -116z" />
    <glyph glyph-name="f" unicode="f" horiz-adv-x="293" 
d="M216 577q-11 -12 -11 -42v-51h78v-87h-78v-397h-124v397h-70v87h70v57q0 69 37 104t102 35q44 0 68 -6v-89q-32 4 -39 4q-22 0 -33 -12z" />
    <glyph glyph-name="g" unicode="g" horiz-adv-x="418" 
d="M373 67.5q40 -37.5 40 -98.5q0 -73 -55 -112t-152 -39q-94 0 -147 32.5t-53 90.5q0 35 23.5 60.5t60.5 37.5q-28 12 -44 31.5t-16 44.5q0 64 83 94q-36 18 -56.5 51t-20.5 81q0 75 46.5 114t118.5 39q37 0 67 -10h140v-83l-66 3q25 -27 25 -72q0 -59 -38 -95.5t-97 -44.5
q-81 -12 -81 -38q0 -10 7 -15t29 -9.5t55 -9.5q18 -2 26 -4q65 -11 105 -48.5zM166 392q-13 -18 -13 -51t13 -51.5t35 -18.5t35 18.5t13 51.5t-13 51t-35 18t-35 -18zM270.5 -87.5q22.5 15.5 22.5 41.5t-22.5 42t-64.5 16q-43 0 -66 -16t-23 -42t22.5 -41.5t66.5 -15.5
q42 0 64.5 15.5z" />
    <glyph glyph-name="h" unicode="h" horiz-adv-x="431" 
d="M357.5 457q34.5 -37 34.5 -101v-356h-124v341q0 32 -10 46.5t-32 14.5q-27 0 -44 -24t-17 -72v-306h-124v668h124v-232q16 27 42.5 42.5t62.5 15.5q53 0 87.5 -37z" />
    <glyph glyph-name="i" unicode="i" horiz-adv-x="206" 
d="M41 0v484h124v-484h-124zM50 559.5q-21 19.5 -21 50.5q0 32 21 52t53 20q33 0 54 -20t21 -52q0 -31 -21 -50.5t-54 -19.5q-32 0 -53 19.5z" />
    <glyph glyph-name="j" unicode="j" horiz-adv-x="212" 
d="M-35 -177v90q30 -4 38 -4q22 0 33 13t11 44v518h124v-533q0 -71 -33.5 -102t-99.5 -31q-48 0 -73 5zM55 559.5q-21 19.5 -21 50.5q0 32 21 52t53 20q33 0 54 -20t21 -52q0 -31 -21 -50.5t-54 -19.5q-32 0 -53 19.5z" />
    <glyph glyph-name="k" unicode="k" horiz-adv-x="403" 
d="M409 0h-138l-92 221h-14v-221h-124v668h124v-361h14l104 177h110l-117 -196z" />
    <glyph glyph-name="l" unicode="l" horiz-adv-x="227" 
d="M212 -3q-27 -7 -71 -7q-49 0 -75 24.5t-26 80.5v573h124v-554q0 -19 6 -26t18 -7q11 0 24 3v-87z" />
    <glyph glyph-name="m" unicode="m" horiz-adv-x="638" 
d="M565 456.5q34 -37.5 34 -100.5v-356h-124v342q0 31 -8.5 45.5t-28.5 14.5q-25 0 -40.5 -24t-15.5 -71v-307h-124v342q0 31 -9 45.5t-28 14.5q-25 0 -40.5 -24t-15.5 -71v-307h-124v484h117v-60q15 33 42.5 51.5t65.5 18.5q34 0 61 -18t41 -50q16 32 44 50t68 18
q51 0 85 -37.5z" />
    <glyph glyph-name="n" unicode="n" horiz-adv-x="431" 
d="M357.5 457q34.5 -37 34.5 -101v-356h-124v341q0 32 -10 46.5t-32 14.5q-27 0 -44 -24t-17 -72v-306h-124v484h117v-61q16 33 44 52t68 19q53 0 87.5 -37z" />
    <glyph glyph-name="o" unicode="o" horiz-adv-x="434" 
d="M77.5 55q-53.5 65 -53.5 187q0 81 25 138t68.5 85.5t99.5 28.5t99.5 -28.5t68.5 -85.5t25 -138q0 -122 -53.5 -187t-139.5 -65t-139.5 65zM264.5 119q16.5 38 16.5 123t-16.5 122.5t-47.5 37.5q-64 0 -64 -160q0 -161 64 -161q31 0 47.5 38z" />
    <glyph glyph-name="p" unicode="p" horiz-adv-x="445" 
d="M375.5 433.5q44.5 -60.5 44.5 -191.5t-44.5 -191.5t-110.5 -60.5q-65 0 -100 60v-222h-124v656h117v-63q36 73 107 73q66 0 110.5 -60.5zM291 241q0 161 -64 161q-63 0 -63 -161q0 -160 63 -160q64 0 64 160z" />
    <glyph glyph-name="q" unicode="q" horiz-adv-x="445" 
d="M287 484h117v-656h-123v223q-36 -61 -101 -61t-109.5 60t-44.5 191t44.5 192t109.5 61q71 0 107 -73v63zM282 242q0 160 -64 160q-63 0 -63 -160q0 -161 63 -161q64 0 64 161z" />
    <glyph glyph-name="r" unicode="r" horiz-adv-x="310" 
d="M298 488v-111q-38 4 -49 4q-45 0 -64.5 -32.5t-19.5 -105.5v-243h-124v484h116v-85q13 45 39.5 70t65.5 25q21 0 36 -6z" />
    <glyph glyph-name="s" unicode="s" horiz-adv-x="367" 
d="M84 145q18 -32 41.5 -48.5t51.5 -16.5q26 0 41.5 11.5t15.5 31.5t-15 34t-46 30l-45 25q-48 26 -73 60t-25 84q0 60 43 98.5t111 38.5q50 0 88.5 -22t67.5 -70l-71 -51q-15 24 -35 39t-44 15q-21 0 -33.5 -10.5t-12.5 -29.5q0 -16 12 -28.5t38 -27.5l45 -24
q51 -30 80.5 -62t29.5 -86q0 -67 -44.5 -106.5t-120.5 -39.5q-118 0 -174 108z" />
    <glyph glyph-name="t" unicode="t" horiz-adv-x="306" 
d="M296 397h-89v-268q0 -26 9.5 -37t28.5 -11q23 0 44 7v-87q-33 -11 -92 -11q-51 0 -82 28t-31 83v296h-74v87h74v99l123 43v-142h89v-87z" />
    <glyph glyph-name="u" unicode="u" horiz-adv-x="431" 
d="M266 484h124v-484h-117v61q-16 -33 -44 -52t-68 -19q-53 0 -87.5 37t-34.5 101v356h124v-341q0 -32 10 -46.5t32 -14.5q27 0 44 24t17 72v306z" />
    <glyph glyph-name="v" unicode="v" horiz-adv-x="409" 
d="M216 151l78 333h110l-135 -484h-129l-135 484h135z" />
    <glyph glyph-name="w" unicode="w" horiz-adv-x="622" 
d="M449 190l64 294h103l-118 -484h-119l-67 305l-69 -305h-120l-116 484h133l57 -306l68 306h118z" />
    <glyph glyph-name="x" unicode="x" horiz-adv-x="375" 
d="M250 258l127 -258h-130l-71 145l-74 -145h-100l121 233l-120 251h131l63 -137l71 137h100z" />
    <glyph glyph-name="y" unicode="y" horiz-adv-x="413" 
d="M301 484h108l-153 -515q-25 -84 -58 -117.5t-97 -33.5q-42 0 -65 5v92q24 -6 40 -6q31 0 48.5 20.5t27.5 72.5l1 6l-151 476h136l81 -313z" />
    <glyph glyph-name="z" unicode="z" horiz-adv-x="349" 
d="M327 407l-170 -320h171v-87h-309v76l171 321h-166v87h303v-77z" />
    <glyph glyph-name="braceleft" unicode="{" horiz-adv-x="283" 
d="M157.5 223.5q18.5 -26.5 18.5 -88.5v-147q0 -37 8 -56t28.5 -27t60.5 -8v-79q-84 0 -126 16t-56.5 52t-14.5 106v143q0 48 -16 68.5t-60 20.5v76q44 0 60 20.5t16 68.5v143q0 70 14.5 106t56.5 52t126 16v-78q-40 0 -60.5 -8t-28.5 -27.5t-8 -56.5v-147q0 -61 -18.5 -88
t-64.5 -39q46 -12 64.5 -38.5z" />
    <glyph glyph-name="bar" unicode="|" horiz-adv-x="196" 
d="M47 -100v838h102v-838h-102z" />
    <glyph glyph-name="braceright" unicode="}" horiz-adv-x="283" 
d="M124.5 301q-18.5 27 -18.5 88v147q0 37 -8 56.5t-28 27.5t-60 8v78q84 0 126 -16t56.5 -52t14.5 -106v-143q0 -48 16 -68.5t60 -20.5v-76q-44 0 -60 -20.5t-16 -68.5v-143q0 -70 -14.5 -106t-56.5 -52t-126 -16v79q40 0 60 8t28 27t8 56v147q0 62 18.5 88.5t64.5 38.5
q-46 12 -64.5 39z" />
    <glyph glyph-name="asciitilde" unicode="~" 
d="M273 237q-19 9 -37 24q-14 12 -23.5 17t-21.5 5q-30 0 -34 -49h-77q4 75 31.5 110.5t70.5 35.5q28 0 48 -9t42 -25q13 -11 22.5 -16t19.5 -5q27 0 32 49h76q-3 -75 -31 -110.5t-72 -35.5q-27 0 -46 9z" />
    <glyph glyph-name="uni00A0" unicode="&#xa0;" horiz-adv-x="150" 
 />
    <glyph glyph-name="exclamdown" unicode="&#xa1;" horiz-adv-x="213" 
d="M49.5 364q-22.5 21 -22.5 55q0 33 22.5 54t57.5 21t57 -21t22 -54q0 -34 -22 -55t-57 -21t-57.5 21zM173 -172h-133v121l26 314h79l28 -314v-121z" />
    <glyph glyph-name="cent" unicode="&#xa2;" 
d="M427 225q-13 -58 -44 -91.5t-74 -43.5v-90h-86v90q-66 16 -106 78.5t-40 168.5t40 168.5t106 77.5v85h86v-85q87 -23 115 -130l-90 -31q-21 75 -63 75q-65 0 -65 -160t65 -160q23 0 38.5 18t25.5 57z" />
    <glyph glyph-name="sterling" unicode="&#xa3;" 
d="M459 94v-94h-404v84q40 15 64 55t24 80q0 17 -2.5 31.5t-10.5 43.5h-88v78h68q-10 40 -14 66.5t-4 57.5q0 84 49.5 134t138.5 50q105 0 164 -77l-63 -71q-21 25 -42 37t-45 12q-34 0 -55 -23t-21 -70q0 -23 4.5 -45.5t16.5 -70.5h151v-78h-131q7 -35 7 -66
q0 -40 -17.5 -74.5t-49.5 -59.5h260z" />
    <glyph glyph-name="currency" unicode="&#xa4;" 
d="M402 204l64 -88l-68 -52l-54 74q-41 -27 -95 -27q-53 0 -93 26l-53 -73l-68 52l62 85q-33 57 -33 139q0 79 32 137l-62 85l68 53l53 -72q42 26 94 26q54 0 96 -28l54 74l68 -53l-64 -88q30 -57 30 -134t-31 -136zM307.5 244.5q18.5 36.5 18.5 95.5t-18.5 95.5t-58.5 36.5
q-42 0 -60.5 -36.5t-18.5 -95.5t18.5 -95.5t60.5 -36.5q40 0 58.5 36.5z" />
    <glyph glyph-name="yen" unicode="&#xa5;" 
d="M366 668h113l-150 -334h91v-65h-106v-61h106v-65h-106v-143h-126v143h-105v65h105v61h-105v65h89l-152 334h136l105 -256z" />
    <glyph glyph-name="brokenbar" unicode="&#xa6;" horiz-adv-x="196" 
d="M47 411v327h102v-327h-102zM47 -100v327h102v-327h-102z" />
    <glyph glyph-name="section" unicode="&#xa7;" horiz-adv-x="415" 
d="M368 47q0 -69 -45.5 -109.5t-117.5 -40.5q-56 0 -101.5 26t-76.5 79l72 52q16 -30 44.5 -48.5t55.5 -18.5q23 0 38.5 12.5t15.5 34.5q0 21 -14 35.5t-53 37.5l-48 28q-54 32 -83.5 67.5t-29.5 91.5q0 84 78 130q-46 44 -46 108q0 42 21 76t57.5 53t82.5 19q51 0 90 -22
t69 -69l-69 -52q-15 24 -37 39t-47 15q-21 0 -36.5 -12.5t-15.5 -35.5q0 -20 15.5 -37.5t44.5 -33.5l46 -27q52 -31 82.5 -66t30.5 -97q0 -85 -73 -130q50 -43 50 -105zM149.5 262.5q19.5 -19.5 55.5 -39.5l43 -24q15 9 25.5 25.5t10.5 38.5q0 27 -15.5 45.5t-56.5 43.5
l-39 24q-43 -26 -43 -64q0 -30 19.5 -49.5z" />
    <glyph glyph-name="dieresis" unicode="&#xa8;" horiz-adv-x="362" 
d="M49 555.5q-18 17.5 -18 45.5q0 29 18 46.5t47 17.5t47 -17.5t18 -46.5q0 -28 -18 -45.5t-47 -17.5t-47 17.5zM218 555.5q-18 17.5 -18 45.5q0 29 18 46.5t46 17.5q29 0 47.5 -17.5t18.5 -46.5q0 -28 -18.5 -45.5t-47.5 -17.5q-28 0 -46 17.5z" />
    <glyph glyph-name="copyright" unicode="&#xa9;" horiz-adv-x="576" 
d="M155.5 38.5q-59.5 38.5 -93.5 113.5t-34 182q0 106 34 181.5t93.5 114t133.5 38.5t132.5 -38.5t92.5 -114t34 -181.5q0 -107 -34 -182t-92.5 -113.5t-132.5 -38.5t-133.5 38.5zM430 133q51 72 51 201t-51 201.5t-141 72.5q-91 0 -144 -73t-53 -201q0 -130 53 -201.5
t144 -71.5q90 0 141 72zM259 242q14 -31 39 -31q39 0 54 67l61 -13q-18 -122 -118 -122q-37 0 -68.5 21.5t-50 65t-18.5 105.5q0 64 18.5 108.5t50 66t68.5 21.5q44 0 74.5 -27t40.5 -85l-61 -14q-13 57 -51 57q-25 0 -39 -31t-14 -96q0 -62 14 -93z" />
    <glyph glyph-name="ordfeminine" unicode="&#xaa;" horiz-adv-x="310" 
d="M194 329q0 10 -1 18t-1 23q-13 -24 -32 -36t-50 -12q-40 0 -64 25t-24 71q0 48 25 72t68 35q24 7 69 15v24q0 50 -39 50q-17 0 -28.5 -11.5t-11.5 -38.5h-68q0 53 32 82t83 29q57 0 88.5 -30.5t31.5 -92.5v-125q0 -34 6 -98h-84zM173 396.5q11 15.5 11 43.5v51
q-5 -1 -32 -9q-19 -6 -29 -19.5t-10 -36.5q0 -45 30 -45q19 0 30 15.5z" />
    <glyph glyph-name="guillemotleft" unicode="&#xab;" horiz-adv-x="401" 
d="M134 255l68 -195h-88l-96 195l96 189h88zM305 255l70 -195h-89l-96 195l96 189h89z" />
    <glyph glyph-name="logicalnot" unicode="&#xac;" 
d="M39 256v98h416v-253h-103v155h-313z" />
    <glyph glyph-name="uni00AD" unicode="&#xad;" horiz-adv-x="292" 
d="M253 234h-214v91h214v-91z" />
    <glyph glyph-name="registered" unicode="&#xae;" horiz-adv-x="435" 
d="M316.5 655q44.5 -25 70 -70.5t25.5 -105.5q0 -61 -25.5 -107t-70 -70.5t-99.5 -24.5t-99 24.5t-69.5 70.5t-25.5 107q0 60 25.5 105.5t69.5 70.5t99 25t99.5 -25zM328 359q43 44 43 120q0 74 -43 118t-111 44q-67 0 -110.5 -44t-43.5 -118t43.5 -119t110.5 -45
q68 0 111 44zM294.5 485q-11.5 -17 -31.5 -25l57 -93h-70l-45 83h-13v-83h-60v232h86q39 0 63.5 -19.5t24.5 -54.5q0 -23 -11.5 -40zM192 554v-59h18q15 0 23.5 7.5t8.5 20.5q0 15 -9 23t-23 8h-18z" />
    <glyph glyph-name="macron" unicode="&#xaf;" horiz-adv-x="362" 
d="M303 556h-246v87h246v-87z" />
    <glyph glyph-name="degree" unicode="&#xb0;" horiz-adv-x="298" 
d="M53.5 448q-35.5 38 -35.5 97t35.5 97t96.5 38q59 0 94.5 -38.5t35.5 -96.5q0 -59 -35 -97t-95 -38q-61 0 -96.5 38zM191.5 496.5q15.5 19.5 15.5 48.5t-15.5 48.5t-41.5 19.5q-28 0 -43 -19t-15 -49t15 -49t43 -19q26 0 41.5 19.5z" />
    <glyph glyph-name="plusminus" unicode="&#xb1;" 
d="M301 566v-161h145v-92h-145v-156h-103v156h-144v92h144v161h103zM446 21h-392v91h392v-91z" />
    <glyph glyph-name="uni00B2" unicode="&#xb2;" horiz-adv-x="294" 
d="M267 350v-69h-240v67q86 77 116.5 125t30.5 90q0 20 -9 31.5t-25 11.5q-18 0 -28.5 -14.5t-9.5 -45.5h-77q0 129 124 129q49 0 83 -29.5t34 -77.5q0 -54 -35 -103.5t-115 -114.5h151z" />
    <glyph glyph-name="uni00B3" unicode="&#xb3;" horiz-adv-x="301" 
d="M254.5 449.5q20.5 -26.5 20.5 -61.5q0 -50 -37.5 -82t-97.5 -32q-54 0 -84.5 28t-35.5 83l67 13q3 -26 14.5 -41t35.5 -15q23 0 35 15t12 38q0 22 -14.5 37t-38.5 15h-21v66h22q23 0 34.5 15t11.5 35q0 18 -10.5 31t-29.5 13q-16 0 -28.5 -11t-16.5 -32l-67 13
q19 98 120 98q53 0 86 -30t33 -75q0 -33 -17 -54.5t-43 -29.5q29 -10 49.5 -36.5z" />
    <glyph glyph-name="acute" unicode="&#xb4;" horiz-adv-x="362" 
d="M182 543h-63l70 125h134v-11z" />
    <glyph glyph-name="uni00B5" unicode="&#xb5;" horiz-adv-x="453" 
d="M439 94v-94q-20 -8 -51 -8q-79 0 -94 69q-25 -69 -87 -69q-22 0 -42 13v-184h-124v663h124v-332q0 -36 11 -53.5t31 -17.5q27 0 44 30t17 91v282h124v-328q0 -39 8 -51.5t24 -12.5q7 0 15 2z" />
    <glyph glyph-name="paragraph" unicode="&#xb6;" horiz-adv-x="460" 
d="M405 -179h-75v789h-72v-789h-75v430h-17q-71 0 -109.5 54t-38.5 156t38.5 154.5t109.5 52.5h239v-847z" />
    <glyph glyph-name="periodcentered" unicode="&#xb7;" horiz-adv-x="212" 
d="M49.5 224q-22.5 21 -22.5 53q0 34 22 55t57 21t57 -21t22 -55q0 -32 -22 -53t-57 -21q-34 0 -56.5 21z" />
    <glyph glyph-name="cedilla" unicode="&#xb8;" horiz-adv-x="362" 
d="M247 -58q22 -18 22 -48q0 -36 -28.5 -56t-73.5 -20q-46 0 -75 19l19 48q19 -13 40 -13q12 0 20.5 6.5t8.5 18.5q0 11 -6.5 17.5t-18.5 6.5t-23 -9l-23 14l55 98h51l-39 -65q4 1 12 1q37 0 59 -18z" />
    <glyph glyph-name="uni00B9" unicode="&#xb9;" horiz-adv-x="256" 
d="M180 350h62v-69h-215v69h63v200q-22 -9 -63 -11v64q77 3 93 65h60v-318z" />
    <glyph glyph-name="ordmasculine" unicode="&#xba;" horiz-adv-x="322" 
d="M60.5 368q-38.5 46 -38.5 131q0 84 38.5 130t100.5 46t101 -46t39 -130q0 -85 -39 -131t-101 -46t-100.5 46zM209 499q0 111 -48 111t-48 -111q0 -112 48 -112t48 112z" />
    <glyph glyph-name="guillemotright" unicode="&#xbb;" horiz-adv-x="401" 
d="M114 60h-89l70 195l-70 189h89l96 -189zM286 60h-88l68 195l-68 189h88l96 -189z" />
    <glyph glyph-name="onequarter" unicode="&#xbc;" horiz-adv-x="690" 
d="M180 350h62v-69h-215v69h63v200q-22 -9 -63 -11v64q77 3 93 65h60v-318zM233 0h-91l340 668h92zM629 133h41v-65h-41v-68h-88v68h-144v63l134 256h98v-254zM547 133v179l-93 -179h93z" />
    <glyph glyph-name="onehalf" unicode="&#xbd;" horiz-adv-x="719" 
d="M180 350h62v-69h-215v69h63v200q-22 -9 -63 -11v64q77 3 93 65h60v-318zM233 0h-91l340 668h92zM692 69v-69h-240v67q86 77 116.5 125t30.5 90q0 20 -9 31.5t-25 11.5q-18 0 -28.5 -14.5t-9.5 -45.5h-77q0 129 124 129q49 0 83 -29.5t34 -77.5q0 -54 -35 -103.5
t-115 -114.5h151z" />
    <glyph glyph-name="threequarters" unicode="&#xbe;" horiz-adv-x="707" 
d="M254.5 449.5q20.5 -26.5 20.5 -61.5q0 -50 -37.5 -82t-97.5 -32q-54 0 -84.5 28t-35.5 83l67 13q3 -26 14.5 -41t35.5 -15q23 0 35 15t12 38q0 22 -14.5 37t-38.5 15h-21v66h22q23 0 34.5 15t11.5 35q0 18 -10.5 31t-29.5 13q-16 0 -28.5 -11t-16.5 -32l-67 13
q19 98 120 98q53 0 86 -30t33 -75q0 -33 -17 -54.5t-43 -29.5q29 -10 49.5 -36.5zM250 0h-91l340 668h92zM646 133h41v-65h-41v-68h-88v68h-144v63l134 256h98v-254zM564 133v179l-93 -179h93z" />
    <glyph glyph-name="questiondown" unicode="&#xbf;" horiz-adv-x="364" 
d="M130 364q-22 21 -22 55q0 33 22 54t57 21t57 -21t22 -54q0 -34 -22 -55t-57 -21t-57 21zM348 3q0 -89 -43 -137t-118 -48q-73 0 -120 47t-47 133q0 63 30.5 110.5t83.5 76.5v82h108v-119q-89 -44 -89 -147q0 -82 47 -82q24 0 36 23t12 61h100z" />
    <glyph glyph-name="Agrave" unicode="&#xc0;" horiz-adv-x="499" 
d="M495 0h-137l-33 142h-171l-34 -142h-115l174 668h141zM241 511l-65 -276h128zM235 847l73 -120h-66l-149 111v9h142z" />
    <glyph glyph-name="Aacute" unicode="&#xc1;" horiz-adv-x="499" 
d="M495 0h-137l-33 142h-171l-34 -142h-115l174 668h141zM241 511l-65 -276h128zM258 727h-66l73 120h142v-9z" />
    <glyph glyph-name="Acircumflex" unicode="&#xc2;" horiz-adv-x="499" 
d="M495 0h-137l-33 142h-171l-34 -142h-115l174 668h141zM241 511l-65 -276h128zM298 847l94 -120h-66l-76 50l-76 -50h-65l93 120h96z" />
    <glyph glyph-name="Atilde" unicode="&#xc3;" horiz-adv-x="499" 
d="M495 0h-137l-33 142h-171l-34 -142h-115l174 668h141zM241 511l-65 -276h128zM269 729.5q-14 6.5 -24 13t-13 8.5q-23 15 -33 15q-28 0 -32 -38h-65q3 69 31.5 95.5t64.5 26.5q22 0 37.5 -6.5t32.5 -18.5q12 -9 20 -13.5t15 -4.5q26 0 31 38h65q-3 -67 -31 -94.5
t-66 -27.5q-19 0 -33 6.5z" />
    <glyph glyph-name="Adieresis" unicode="&#xc4;" horiz-adv-x="499" 
d="M495 0h-137l-33 142h-171l-34 -142h-115l174 668h141zM241 511l-65 -276h128zM106.5 738q-19.5 18 -19.5 48t19.5 48t49.5 18t49 -18t19 -48t-19 -48t-49 -18t-49.5 18zM296 738q-19 18 -19 48t19 48t49 18t49 -18t19 -48t-19 -48t-49 -18t-49 18z" />
    <glyph glyph-name="Aring" unicode="&#xc5;" horiz-adv-x="499" 
d="M495 0h-137l-33 142h-171l-34 -142h-115l174 668h141zM241 511l-65 -276h128zM164.5 747q-33.5 30 -33.5 75q0 46 33 76t86 30t86 -30t33 -76q0 -45 -33.5 -75t-85.5 -30t-85.5 30zM278.5 793.5q11.5 11.5 11.5 28.5q0 18 -11 29.5t-29 11.5t-29 -12t-11 -29t11 -28.5
t29 -11.5q17 0 28.5 11.5z" />
    <glyph glyph-name="AE" unicode="&#xc6;" horiz-adv-x="690" 
d="M455 295v-195h204v-100h-335v148h-159l-58 -148h-125l284 668h389v-100h-200v-175h184v-98h-184zM324 549l-122 -309h122v309z" />
    <glyph glyph-name="Ccedilla" unicode="&#xc7;" horiz-adv-x="472" 
d="M193 151q27 -59 73 -59q34 0 57 30.5t35 98.5l100 -22q-18 -114 -69.5 -162.5t-128.5 -48.5q-62 0 -114.5 37.5t-84.5 115.5t-32 194t32 193.5t84.5 114.5t114.5 37q74 0 125.5 -46.5t67.5 -148.5l-99 -22q-12 60 -34 86.5t-54 26.5q-46 0 -73 -58.5t-27 -182.5
q0 -125 27 -184zM336.5 -56.5q23.5 -18.5 23.5 -46.5q0 -38 -29.5 -58.5t-77.5 -20.5t-78 20l20 49q21 -12 41 -12q14 0 22.5 6.5t8.5 18.5q0 9 -5.5 15t-16.5 6q-14 0 -25 -9l-24 14l54 97h53l-37 -61h9q38 0 61.5 -18.5z" />
    <glyph glyph-name="Egrave" unicode="&#xc8;" horiz-adv-x="422" 
d="M180 295v-195h211v-100h-341v668h336v-100h-206v-175h191v-98h-191zM206 847l73 -120h-66l-149 111v9h142z" />
    <glyph glyph-name="Eacute" unicode="&#xc9;" horiz-adv-x="422" 
d="M180 295v-195h211v-100h-341v668h336v-100h-206v-175h191v-98h-191zM229 727h-66l73 120h142v-9z" />
    <glyph glyph-name="Ecircumflex" unicode="&#xca;" horiz-adv-x="422" 
d="M180 295v-195h211v-100h-341v668h336v-100h-206v-175h191v-98h-191zM269 847l94 -120h-66l-76 50l-76 -50h-65l93 120h96z" />
    <glyph glyph-name="Edieresis" unicode="&#xcb;" horiz-adv-x="422" 
d="M180 295v-195h211v-100h-341v668h336v-100h-206v-175h191v-98h-191zM77.5 738q-19.5 18 -19.5 48t19.5 48t49.5 18t49 -18t19 -48t-19 -48t-49 -18t-49.5 18zM267 738q-19 18 -19 48t19 48t49 18t49 -18t19 -48t-19 -48t-49 -18t-49 18z" />
    <glyph glyph-name="Igrave" unicode="&#xcc;" horiz-adv-x="230" 
d="M107 847l59 -120h-64l-130 110v10h135zM50 0v668h130v-668h-130z" />
    <glyph glyph-name="Iacute" unicode="&#xcd;" horiz-adv-x="230" 
d="M130 727h-65l60 120h135v-10zM50 0v668h130v-668h-130z" />
    <glyph glyph-name="Icircumflex" unicode="&#xce;" horiz-adv-x="230" 
d="M70 847h91l87 -120h-65l-68 55l-68 -55h-65zM180 0h-130v668h130v-668z" />
    <glyph glyph-name="Idieresis" unicode="&#xcf;" horiz-adv-x="230" 
d="M-14 740q-18 18 -18 46t18 46t47 18t47 -18t18 -46q0 -29 -18 -46.5t-47 -17.5t-47 18zM152 740q-18 18 -18 46t18 46t46 18q29 0 47.5 -18t18.5 -46t-18.5 -46t-47.5 -18q-28 0 -46 18zM50 0v668h130v-668h-130z" />
    <glyph glyph-name="Eth" unicode="&#xd0;" horiz-adv-x="560" 
d="M405.5 629q59.5 -39 93.5 -114.5t34 -180.5t-34 -180.5t-93.5 -114.5t-134.5 -39h-189v304h-69v77h69v287h189q75 0 134.5 -39zM257 100q65 0 102.5 58.5t37.5 175.5t-37.5 175.5t-102.5 58.5h-45v-187h102v-77h-102v-204h45z" />
    <glyph glyph-name="Ntilde" unicode="&#xd1;" horiz-adv-x="530" 
d="M371 200v468h109v-668h-165l-156 467v-467h-109v668h164zM285 729.5q-14 6.5 -24 13t-13 8.5q-23 15 -33 15q-28 0 -32 -38h-65q3 69 31.5 95.5t64.5 26.5q22 0 37.5 -6.5t32.5 -18.5q12 -9 20 -13.5t15 -4.5q26 0 31 38h65q-3 -67 -31 -94.5t-66 -27.5q-19 0 -33 6.5z
" />
    <glyph glyph-name="Ograve" unicode="&#xd2;" horiz-adv-x="546" 
d="M146 26.5q-55 38.5 -86 116t-31 191.5t31 192t86 116t127 38t127 -38.5t86.5 -116t31.5 -191.5t-31.5 -191.5t-86.5 -116t-127 -38.5t-127 38.5zM352 150.5q29 58.5 29 183.5t-29 183.5t-79 58.5t-79 -58.5t-29 -183.5t29 -183.5t79 -58.5t79 58.5zM258 847l73 -120h-66
l-149 111v9h142z" />
    <glyph glyph-name="Oacute" unicode="&#xd3;" horiz-adv-x="546" 
d="M146 26.5q-55 38.5 -86 116t-31 191.5t31 192t86 116t127 38t127 -38.5t86.5 -116t31.5 -191.5t-31.5 -191.5t-86.5 -116t-127 -38.5t-127 38.5zM352 150.5q29 58.5 29 183.5t-29 183.5t-79 58.5t-79 -58.5t-29 -183.5t29 -183.5t79 -58.5t79 58.5zM281 727h-66l73 120
h142v-9z" />
    <glyph glyph-name="Ocircumflex" unicode="&#xd4;" horiz-adv-x="546" 
d="M146 26.5q-55 38.5 -86 116t-31 191.5t31 192t86 116t127 38t127 -38.5t86.5 -116t31.5 -191.5t-31.5 -191.5t-86.5 -116t-127 -38.5t-127 38.5zM352 150.5q29 58.5 29 183.5t-29 183.5t-79 58.5t-79 -58.5t-29 -183.5t29 -183.5t79 -58.5t79 58.5zM321 847l94 -120h-66
l-76 50l-76 -50h-65l93 120h96z" />
    <glyph glyph-name="Otilde" unicode="&#xd5;" horiz-adv-x="546" 
d="M146 26.5q-55 38.5 -86 116t-31 191.5t31 192t86 116t127 38t127 -38.5t86.5 -116t31.5 -191.5t-31.5 -191.5t-86.5 -116t-127 -38.5t-127 38.5zM352 150.5q29 58.5 29 183.5t-29 183.5t-79 58.5t-79 -58.5t-29 -183.5t29 -183.5t79 -58.5t79 58.5zM292 729.5
q-14 6.5 -24 13t-13 8.5q-23 15 -33 15q-28 0 -32 -38h-65q3 69 31.5 95.5t64.5 26.5q22 0 37.5 -6.5t32.5 -18.5q12 -9 20 -13.5t15 -4.5q26 0 31 38h65q-3 -67 -31 -94.5t-66 -27.5q-19 0 -33 6.5z" />
    <glyph glyph-name="Odieresis" unicode="&#xd6;" horiz-adv-x="546" 
d="M146 26.5q-55 38.5 -86 116t-31 191.5t31 192t86 116t127 38t127 -38.5t86.5 -116t31.5 -191.5t-31.5 -191.5t-86.5 -116t-127 -38.5t-127 38.5zM352 150.5q29 58.5 29 183.5t-29 183.5t-79 58.5t-79 -58.5t-29 -183.5t29 -183.5t79 -58.5t79 58.5zM129.5 738
q-19.5 18 -19.5 48t19.5 48t49.5 18t49 -18t19 -48t-19 -48t-49 -18t-49.5 18zM319 738q-19 18 -19 48t19 48t49 18t49 -18t19 -48t-19 -48t-49 -18t-49 18z" />
    <glyph glyph-name="multiply" unicode="&#xd7;" 
d="M381 511l69 -67l-133 -139l133 -140l-69 -67l-131 137l-131 -137l-69 67l133 140l-133 139l69 67l131 -137z" />
    <glyph glyph-name="Oslash" unicode="&#xd8;" horiz-adv-x="548" 
d="M461 577q57 -90 57 -243q0 -114 -31 -191.5t-86 -116t-127 -38.5q-77 0 -133 43l-36 -60l-64 40l47 78q-59 91 -59 245q0 114 31.5 192t86.5 116t127 38q78 0 134 -44l34 56l64 -40zM195 517.5q-29 -58.5 -29 -183.5q0 -63 7 -104l172 303q-26 43 -71 43q-50 0 -79 -58.5
zM353 150.5q29 58.5 29 183.5q0 57 -6 99l-172 -300q28 -41 70 -41q50 0 79 58.5z" />
    <glyph glyph-name="Ugrave" unicode="&#xd9;" horiz-adv-x="495" 
d="M102.5 39q-55.5 51 -55.5 149v480h130v-472q0 -104 79 -104q40 0 60.5 24.5t20.5 79.5v472h111v-480q0 -98 -55.5 -149t-144.5 -51q-90 0 -145.5 51zM239 847l73 -120h-66l-149 111v9h142z" />
    <glyph glyph-name="Uacute" unicode="&#xda;" horiz-adv-x="495" 
d="M102.5 39q-55.5 51 -55.5 149v480h130v-472q0 -104 79 -104q40 0 60.5 24.5t20.5 79.5v472h111v-480q0 -98 -55.5 -149t-144.5 -51q-90 0 -145.5 51zM262 727h-66l73 120h142v-9z" />
    <glyph glyph-name="Ucircumflex" unicode="&#xdb;" horiz-adv-x="495" 
d="M102.5 39q-55.5 51 -55.5 149v480h130v-472q0 -104 79 -104q40 0 60.5 24.5t20.5 79.5v472h111v-480q0 -98 -55.5 -149t-144.5 -51q-90 0 -145.5 51zM302 847l94 -120h-66l-76 50l-76 -50h-65l93 120h96z" />
    <glyph glyph-name="Udieresis" unicode="&#xdc;" horiz-adv-x="495" 
d="M102.5 39q-55.5 51 -55.5 149v480h130v-472q0 -104 79 -104q40 0 60.5 24.5t20.5 79.5v472h111v-480q0 -98 -55.5 -149t-144.5 -51q-90 0 -145.5 51zM109.5 738q-19.5 18 -19.5 48t19.5 48t49.5 18t49 -18t19 -48t-19 -48t-49 -18t-49.5 18zM299 738q-19 18 -19 48t19 48
t49 18t49 -18t19 -48t-19 -48t-49 -18t-49 18z" />
    <glyph glyph-name="Yacute" unicode="&#xdd;" horiz-adv-x="498" 
d="M375 668h120l-181 -364v-304h-130v302l-181 366h142l115 -247zM262 727h-66l73 120h142v-9z" />
    <glyph glyph-name="Thorn" unicode="&#xde;" horiz-adv-x="467" 
d="M229 552q62 0 111 -24t77 -70.5t28 -111.5t-28 -112t-77 -71.5t-111 -24.5h-49v-138h-130v668h130v-116h49zM220 235q41 0 65 27.5t24 81.5t-24 81t-65 27h-40v-217h40z" />
    <glyph glyph-name="germandbls" unicode="&#xdf;" horiz-adv-x="439" 
d="M386 314.5q30 -49.5 30 -118.5q0 -59 -22.5 -105.5t-61.5 -72.5t-89 -26q-15 0 -41 6v88q8 -2 23 -2q30 0 46 33t16 88q0 54 -17.5 87.5t-46.5 33.5h-14v88h9q26 0 39.5 22.5t13.5 64.5t-14 65t-39 23q-24 0 -38.5 -22.5t-14.5 -63.5v-503h-124v475q0 100 50 152.5
t134 52.5q73 0 119 -47.5t46 -125.5q0 -49 -21.5 -81.5t-54.5 -46.5q42 -15 72 -64.5z" />
    <glyph glyph-name="agrave" unicode="&#xe0;" horiz-adv-x="404" 
d="M256 0l-4 61q-17 -35 -43 -53t-69 -18q-55 0 -88.5 35.5t-33.5 101.5q0 67 34 101t95 52q46 12 93 20v37q0 72 -52 72q-23 0 -39 -16.5t-17 -56.5h-94q1 76 45.5 117t114.5 41q80 0 123 -43t43 -131v-181q0 -49 8 -139h-116zM226 95q14 23 14 62v75q-19 -4 -39 -11
q-28 -10 -41.5 -29.5t-13.5 -52.5q0 -67 41 -67q25 0 39 23zM187 668l70 -125h-64l-140 114v11h134z" />
    <glyph glyph-name="aacute" unicode="&#xe1;" horiz-adv-x="404" 
d="M256 0l-4 61q-17 -35 -43 -53t-69 -18q-55 0 -88.5 35.5t-33.5 101.5q0 67 34 101t95 52q46 12 93 20v37q0 72 -52 72q-23 0 -39 -16.5t-17 -56.5h-94q1 76 45.5 117t114.5 41q80 0 123 -43t43 -131v-181q0 -49 8 -139h-116zM226 95q14 23 14 62v75q-19 -4 -39 -11
q-28 -10 -41.5 -29.5t-13.5 -52.5q0 -67 41 -67q25 0 39 23zM205 543h-63l70 125h134v-11z" />
    <glyph glyph-name="acircumflex" unicode="&#xe2;" horiz-adv-x="404" 
d="M256 0l-4 61q-17 -35 -43 -53t-69 -18q-55 0 -88.5 35.5t-33.5 101.5q0 67 34 101t95 52q46 12 93 20v37q0 72 -52 72q-23 0 -39 -16.5t-17 -56.5h-94q1 76 45.5 117t114.5 41q80 0 123 -43t43 -131v-181q0 -49 8 -139h-116zM226 95q14 23 14 62v75q-19 -4 -39 -11
q-28 -10 -41.5 -29.5t-13.5 -52.5q0 -67 41 -67q25 0 39 23zM246 668l88 -125h-63l-71 52l-71 -52h-63l89 125h91z" />
    <glyph glyph-name="atilde" unicode="&#xe3;" horiz-adv-x="404" 
d="M256 0l-4 61q-17 -35 -43 -53t-69 -18q-55 0 -88.5 35.5t-33.5 101.5q0 67 34 101t95 52q46 12 93 20v37q0 72 -52 72q-23 0 -39 -16.5t-17 -56.5h-94q1 76 45.5 117t114.5 41q80 0 123 -43t43 -131v-181q0 -49 8 -139h-116zM226 95q14 23 14 62v75q-19 -4 -39 -11
q-28 -10 -41.5 -29.5t-13.5 -52.5q0 -67 41 -67q25 0 39 23zM212.5 552.5q-15.5 7.5 -30.5 19.5q-8 5 -16 9.5t-14 4.5q-25 0 -29 -36h-61q3 66 29.5 91.5t60.5 25.5q20 0 34.5 -6.5t30.5 -18.5q20 -16 31 -16q23 0 28 36h61q-3 -65 -29 -91t-61 -26q-19 0 -34.5 7.5z" />
    <glyph glyph-name="adieresis" unicode="&#xe4;" horiz-adv-x="404" 
d="M256 0l-4 61q-17 -35 -43 -53t-69 -18q-55 0 -88.5 35.5t-33.5 101.5q0 67 34 101t95 52q46 12 93 20v37q0 72 -52 72q-23 0 -39 -16.5t-17 -56.5h-94q1 76 45.5 117t114.5 41q80 0 123 -43t43 -131v-181q0 -49 8 -139h-116zM226 95q14 23 14 62v75q-19 -4 -39 -11
q-28 -10 -41.5 -29.5t-13.5 -52.5q0 -67 41 -67q25 0 39 23zM69 555.5q-18 17.5 -18 45.5q0 29 18 46.5t47 17.5t47 -17.5t18 -46.5q0 -28 -18 -45.5t-47 -17.5t-47 17.5zM238 555.5q-18 17.5 -18 45.5q0 29 18 46.5t46 17.5q29 0 47.5 -17.5t18.5 -46.5q0 -28 -18.5 -45.5
t-47.5 -17.5q-28 0 -46 17.5z" />
    <glyph glyph-name="aring" unicode="&#xe5;" horiz-adv-x="404" 
d="M256 0l-4 61q-17 -35 -43 -53t-69 -18q-55 0 -88.5 35.5t-33.5 101.5q0 67 34 101t95 52q46 12 93 20v37q0 72 -52 72q-23 0 -39 -16.5t-17 -56.5h-94q1 76 45.5 117t114.5 41q80 0 123 -43t43 -131v-181q0 -49 8 -139h-116zM226 95q14 23 14 62v75q-19 -4 -39 -11
q-28 -10 -41.5 -29.5t-13.5 -52.5q0 -67 41 -67q25 0 39 23zM117 570q-32 29 -32 73q0 43 32 72.5t82 29.5t82.5 -29.5t32.5 -72.5q0 -44 -32.5 -73t-82.5 -29t-82 29zM227.5 615q11.5 11 11.5 28t-11 28t-29 11q-17 0 -27.5 -11.5t-10.5 -27.5q0 -17 10.5 -28t27.5 -11
t28.5 11z" />
    <glyph glyph-name="ae" unicode="&#xe6;" horiz-adv-x="626" 
d="M526 145l75 -47q-53 -108 -162 -108q-102 0 -154 78q-20 -38 -50.5 -58t-77.5 -20q-64 0 -101.5 35t-37.5 102q0 133 153 156q35 5 69 6v48q0 72 -52 72q-22 0 -38.5 -16.5t-17.5 -56.5h-94q1 76 44.5 117t110.5 41q83 0 118 -57q45 57 120 57q79 0 125 -61.5t46 -182.5
q0 -12 -2 -34h-235q3 -73 23.5 -104t57.5 -31q49 0 80 64zM366 290h113q-3 63 -16 89.5t-38 26.5q-51 0 -59 -116zM226 95q14 23 14 62v60q-9 0 -27 -2q-67 -7 -67 -76q0 -67 41 -67q25 0 39 23z" />
    <glyph glyph-name="ccedilla" unicode="&#xe7;" horiz-adv-x="386" 
d="M117 17.5q-43 27.5 -68 84t-25 139.5t25 140t68 84.5t96 27.5q57 0 98.5 -33t60.5 -102l-90 -32q-11 38 -26.5 56.5t-37.5 18.5q-65 0 -65 -160t66 -160q22 0 37.5 18.5t25.5 57.5l93 -27q-16 -72 -59 -106t-103 -34q-53 0 -96 27.5zM279 -58q22 -18 22 -48
q0 -36 -28.5 -56t-73.5 -20q-46 0 -75 19l19 48q19 -13 40 -13q12 0 20.5 6.5t8.5 18.5q0 11 -6.5 17.5t-18.5 6.5t-23 -9l-23 14l55 98h51l-39 -65q4 1 12 1q37 0 59 -18z" />
    <glyph glyph-name="egrave" unicode="&#xe8;" horiz-adv-x="419" 
d="M393 216h-240q3 -73 24 -104t58 -31q50 0 81 64l75 -47q-54 -108 -164 -108q-93 0 -147.5 63.5t-54.5 188.5t52 188.5t138 63.5q83 0 131.5 -62t48.5 -182q0 -12 -2 -34zM154 290h117q-3 62 -16 89t-40 27q-53 0 -61 -116zM204 668l70 -125h-64l-140 114v11h134z" />
    <glyph glyph-name="eacute" unicode="&#xe9;" horiz-adv-x="419" 
d="M393 216h-240q3 -73 24 -104t58 -31q50 0 81 64l75 -47q-54 -108 -164 -108q-93 0 -147.5 63.5t-54.5 188.5t52 188.5t138 63.5q83 0 131.5 -62t48.5 -182q0 -12 -2 -34zM154 290h117q-3 62 -16 89t-40 27q-53 0 -61 -116zM222 543h-63l70 125h134v-11z" />
    <glyph glyph-name="ecircumflex" unicode="&#xea;" horiz-adv-x="419" 
d="M393 216h-240q3 -73 24 -104t58 -31q50 0 81 64l75 -47q-54 -108 -164 -108q-93 0 -147.5 63.5t-54.5 188.5t52 188.5t138 63.5q83 0 131.5 -62t48.5 -182q0 -12 -2 -34zM154 290h117q-3 62 -16 89t-40 27q-53 0 -61 -116zM263 668l88 -125h-63l-71 52l-71 -52h-63
l89 125h91z" />
    <glyph glyph-name="edieresis" unicode="&#xeb;" horiz-adv-x="419" 
d="M393 216h-240q3 -73 24 -104t58 -31q50 0 81 64l75 -47q-54 -108 -164 -108q-93 0 -147.5 63.5t-54.5 188.5t52 188.5t138 63.5q83 0 131.5 -62t48.5 -182q0 -12 -2 -34zM154 290h117q-3 62 -16 89t-40 27q-53 0 -61 -116zM86 555.5q-18 17.5 -18 45.5q0 29 18 46.5
t47 17.5t47 -17.5t18 -46.5q0 -28 -18 -45.5t-47 -17.5t-47 17.5zM255 555.5q-18 17.5 -18 45.5q0 29 18 46.5t46 17.5q29 0 47.5 -17.5t18.5 -46.5q0 -28 -18.5 -45.5t-47.5 -17.5q-28 0 -46 17.5z" />
    <glyph glyph-name="igrave" unicode="&#xec;" horiz-adv-x="206" 
d="M99 668l60 -125h-64l-126 114v11h130zM41 0v484h124v-484h-124z" />
    <glyph glyph-name="iacute" unicode="&#xed;" horiz-adv-x="206" 
d="M111 543h-63l60 125h130v-11zM41 0v484h124v-484h-124z" />
    <glyph glyph-name="icircumflex" unicode="&#xee;" horiz-adv-x="206" 
d="M58 668h91l80 -125h-62l-64 56l-64 -56h-62zM165 0h-124v484h124v-484z" />
    <glyph glyph-name="idieresis" unicode="&#xef;" horiz-adv-x="206" 
d="M-18 555.5q-17 17.5 -17 45.5q0 29 17 46.5t44 17.5t44 -17.5t17 -46.5q0 -28 -17 -45.5t-44 -17.5t-44 17.5zM137 555.5q-17 17.5 -17 45.5q0 29 17 46.5t43 17.5q27 0 44.5 -17.5t17.5 -46.5q0 -28 -17.5 -45.5t-44.5 -17.5q-26 0 -43 17.5zM41 0v484h124v-484h-124z
" />
    <glyph glyph-name="eth" unicode="&#xf0;" horiz-adv-x="428" 
d="M289 573q114 -145 114 -319q0 -132 -49.5 -198t-138.5 -66q-91 0 -141 65.5t-50 173.5q0 106 41.5 167.5t112.5 61.5q53 0 90 -48q-26 64 -70 121l-97 -43l-26 60l78 34q-36 36 -56 53l82 51q30 -25 66 -61l91 40l26 -60zM265 122q15 41 15 123q0 125 -61 125
q-30 0 -48 -36t-18 -107q0 -146 63 -146q34 0 49 41z" />
    <glyph glyph-name="ntilde" unicode="&#xf1;" horiz-adv-x="431" 
d="M357.5 457q34.5 -37 34.5 -101v-356h-124v341q0 32 -10 46.5t-32 14.5q-27 0 -44 -24t-17 -72v-306h-124v484h117v-61q16 33 44 52t68 19q53 0 87.5 -37zM238.5 552.5q-15.5 7.5 -30.5 19.5q-8 5 -16 9.5t-14 4.5q-25 0 -29 -36h-61q3 66 29.5 91.5t60.5 25.5
q20 0 34.5 -6.5t30.5 -18.5q20 -16 31 -16q23 0 28 36h61q-3 -65 -29 -91t-61 -26q-19 0 -34.5 7.5z" />
    <glyph glyph-name="ograve" unicode="&#xf2;" horiz-adv-x="434" 
d="M77.5 55q-53.5 65 -53.5 187q0 81 25 138t68.5 85.5t99.5 28.5t99.5 -28.5t68.5 -85.5t25 -138q0 -122 -53.5 -187t-139.5 -65t-139.5 65zM264.5 119q16.5 38 16.5 123t-16.5 122.5t-47.5 37.5q-64 0 -64 -160q0 -161 64 -161q31 0 47.5 38zM204 668l70 -125h-64
l-140 114v11h134z" />
    <glyph glyph-name="oacute" unicode="&#xf3;" horiz-adv-x="434" 
d="M77.5 55q-53.5 65 -53.5 187q0 81 25 138t68.5 85.5t99.5 28.5t99.5 -28.5t68.5 -85.5t25 -138q0 -122 -53.5 -187t-139.5 -65t-139.5 65zM264.5 119q16.5 38 16.5 123t-16.5 122.5t-47.5 37.5q-64 0 -64 -160q0 -161 64 -161q31 0 47.5 38zM222 543h-63l70 125h134v-11z
" />
    <glyph glyph-name="ocircumflex" unicode="&#xf4;" horiz-adv-x="434" 
d="M77.5 55q-53.5 65 -53.5 187q0 81 25 138t68.5 85.5t99.5 28.5t99.5 -28.5t68.5 -85.5t25 -138q0 -122 -53.5 -187t-139.5 -65t-139.5 65zM264.5 119q16.5 38 16.5 123t-16.5 122.5t-47.5 37.5q-64 0 -64 -160q0 -161 64 -161q31 0 47.5 38zM262 668l88 -125h-63l-71 52
l-71 -52h-63l89 125h91z" />
    <glyph glyph-name="otilde" unicode="&#xf5;" horiz-adv-x="434" 
d="M77.5 55q-53.5 65 -53.5 187q0 81 25 138t68.5 85.5t99.5 28.5t99.5 -28.5t68.5 -85.5t25 -138q0 -122 -53.5 -187t-139.5 -65t-139.5 65zM264.5 119q16.5 38 16.5 123t-16.5 122.5t-47.5 37.5q-64 0 -64 -160q0 -161 64 -161q31 0 47.5 38zM229.5 552.5
q-15.5 7.5 -30.5 19.5q-8 5 -16 9.5t-14 4.5q-25 0 -29 -36h-61q3 66 29.5 91.5t60.5 25.5q20 0 34.5 -6.5t30.5 -18.5q20 -16 31 -16q23 0 28 36h61q-3 -65 -29 -91t-61 -26q-19 0 -34.5 7.5z" />
    <glyph glyph-name="odieresis" unicode="&#xf6;" horiz-adv-x="434" 
d="M77.5 55q-53.5 65 -53.5 187q0 81 25 138t68.5 85.5t99.5 28.5t99.5 -28.5t68.5 -85.5t25 -138q0 -122 -53.5 -187t-139.5 -65t-139.5 65zM264.5 119q16.5 38 16.5 123t-16.5 122.5t-47.5 37.5q-64 0 -64 -160q0 -161 64 -161q31 0 47.5 38zM85 555.5q-18 17.5 -18 45.5
q0 29 18 46.5t47 17.5t47 -17.5t18 -46.5q0 -28 -18 -45.5t-47 -17.5t-47 17.5zM254 555.5q-18 17.5 -18 45.5q0 29 18 46.5t46 17.5q29 0 47.5 -17.5t18.5 -46.5q0 -28 -18.5 -45.5t-47.5 -17.5q-28 0 -46 17.5z" />
    <glyph glyph-name="divide" unicode="&#xf7;" 
d="M202.5 417q-18.5 17 -18.5 45q0 27 18.5 44.5t47.5 17.5q28 0 46.5 -17.5t18.5 -44.5q0 -28 -18 -45t-47 -17t-47.5 17zM458 256h-416v97h416v-97zM202.5 102q-18.5 17 -18.5 45q0 27 18.5 44.5t47.5 17.5q28 0 46.5 -17.5t18.5 -44.5q0 -28 -18 -45t-47 -17t-47.5 17z
" />
    <glyph glyph-name="oslash" unicode="&#xf8;" horiz-adv-x="437" 
d="M415 473l-44 -64q40 -66 40 -167q0 -122 -53.5 -187t-139.5 -65q-61 0 -106 33l-38 -53l-58 36l49 69q-40 66 -40 167q0 81 25 138t68.5 85.5t99.5 28.5q61 0 106 -33l32 48zM149 242l1 -44l115 176q-17 28 -47 28q-69 0 -69 -160zM270 118.5q18 37.5 18 123.5
q0 29 -1 42l-114 -175q15 -28 45 -28q34 0 52 37.5z" />
    <glyph glyph-name="ugrave" unicode="&#xf9;" horiz-adv-x="431" 
d="M266 484h124v-484h-117v61q-16 -33 -44 -52t-68 -19q-53 0 -87.5 37t-34.5 101v356h124v-341q0 -32 10 -46.5t32 -14.5q27 0 44 24t17 72v306zM202 668l70 -125h-64l-140 114v11h134z" />
    <glyph glyph-name="uacute" unicode="&#xfa;" horiz-adv-x="431" 
d="M266 484h124v-484h-117v61q-16 -33 -44 -52t-68 -19q-53 0 -87.5 37t-34.5 101v356h124v-341q0 -32 10 -46.5t32 -14.5q27 0 44 24t17 72v306zM220 543h-63l70 125h134v-11z" />
    <glyph glyph-name="ucircumflex" unicode="&#xfb;" horiz-adv-x="431" 
d="M266 484h124v-484h-117v61q-16 -33 -44 -52t-68 -19q-53 0 -87.5 37t-34.5 101v356h124v-341q0 -32 10 -46.5t32 -14.5q27 0 44 24t17 72v306zM260 668l88 -125h-63l-71 52l-71 -52h-63l89 125h91z" />
    <glyph glyph-name="udieresis" unicode="&#xfc;" horiz-adv-x="431" 
d="M266 484h124v-484h-117v61q-16 -33 -44 -52t-68 -19q-53 0 -87.5 37t-34.5 101v356h124v-341q0 -32 10 -46.5t32 -14.5q27 0 44 24t17 72v306zM83 555.5q-18 17.5 -18 45.5q0 29 18 46.5t47 17.5t47 -17.5t18 -46.5q0 -28 -18 -45.5t-47 -17.5t-47 17.5zM252 555.5
q-18 17.5 -18 45.5q0 29 18 46.5t46 17.5q29 0 47.5 -17.5t18.5 -46.5q0 -28 -18.5 -45.5t-47.5 -17.5q-28 0 -46 17.5z" />
    <glyph glyph-name="yacute" unicode="&#xfd;" horiz-adv-x="413" 
d="M301 484h108l-153 -515q-25 -84 -58 -117.5t-97 -33.5q-42 0 -65 5v92q24 -6 40 -6q31 0 48.5 20.5t27.5 72.5l1 6l-151 476h136l81 -313zM219 543h-63l70 125h134v-11z" />
    <glyph glyph-name="thorn" unicode="&#xfe;" horiz-adv-x="445" 
d="M375.5 433.5q44.5 -60.5 44.5 -191.5t-44.5 -191.5t-110.5 -60.5q-65 0 -100 60v-222h-124v840h124v-234q35 60 100 60q66 0 110.5 -60.5zM291 241q0 161 -64 161q-63 0 -63 -161q0 -160 63 -160q64 0 64 160z" />
    <glyph glyph-name="ydieresis" unicode="&#xff;" horiz-adv-x="413" 
d="M301 484h108l-153 -515q-25 -84 -58 -117.5t-97 -33.5q-42 0 -65 5v92q24 -6 40 -6q31 0 48.5 20.5t27.5 72.5l1 6l-151 476h136l81 -313zM82 555.5q-18 17.5 -18 45.5q0 29 18 46.5t47 17.5t47 -17.5t18 -46.5q0 -28 -18 -45.5t-47 -17.5t-47 17.5zM251 555.5
q-18 17.5 -18 45.5q0 29 18 46.5t46 17.5q29 0 47.5 -17.5t18.5 -46.5q0 -28 -18.5 -45.5t-47.5 -17.5q-28 0 -46 17.5z" />
    <glyph glyph-name="Amacron" unicode="&#x100;" horiz-adv-x="499" 
d="M495 0h-137l-33 142h-171l-34 -142h-115l174 668h141zM241 511l-65 -276h128zM383 735h-266v90h266v-90z" />
    <glyph glyph-name="amacron" unicode="&#x101;" horiz-adv-x="404" 
d="M256 0l-4 61q-17 -35 -43 -53t-69 -18q-55 0 -88.5 35.5t-33.5 101.5q0 67 34 101t95 52q46 12 93 20v37q0 72 -52 72q-23 0 -39 -16.5t-17 -56.5h-94q1 76 45.5 117t114.5 41q80 0 123 -43t43 -131v-181q0 -49 8 -139h-116zM226 95q14 23 14 62v75q-19 -4 -39 -11
q-28 -10 -41.5 -29.5t-13.5 -52.5q0 -67 41 -67q25 0 39 23zM323 556h-246v87h246v-87z" />
    <glyph glyph-name="Abreve" unicode="&#x102;" horiz-adv-x="499" 
d="M495 0h-137l-33 142h-171l-34 -142h-115l174 668h141zM241 511l-65 -276h128zM149.5 752q-36.5 32 -41.5 95h67q14 -46 75 -46q62 0 75 46h67q-4 -63 -40.5 -95t-101.5 -32q-64 0 -100.5 32z" />
    <glyph glyph-name="abreve" unicode="&#x103;" horiz-adv-x="404" 
d="M256 0l-4 61q-17 -35 -43 -53t-69 -18q-55 0 -88.5 35.5t-33.5 101.5q0 67 34 101t95 52q46 12 93 20v37q0 72 -52 72q-23 0 -39 -16.5t-17 -56.5h-94q1 76 45.5 117t114.5 41q80 0 123 -43t43 -131v-181q0 -49 8 -139h-116zM226 95q14 23 14 62v75q-19 -4 -39 -11
q-28 -10 -41.5 -29.5t-13.5 -52.5q0 -67 41 -67q25 0 39 23zM110 570.5q-33 33.5 -37 97.5h60q14 -54 67 -54t67 54h60q-4 -64 -37 -97.5t-90 -33.5t-90 33.5z" />
    <glyph glyph-name="Aogonek" unicode="&#x104;" horiz-adv-x="499" 
d="M507 -116q-22 -33 -50.5 -49.5t-68.5 -16.5q-50 0 -80 24t-30 61q0 28 16 51t52 50l10 7l-31 131h-171l-34 -142h-115l174 668h141l175 -668h-63q-50 -38 -50 -69q0 -14 7.5 -22t21.5 -8q24 0 43 32zM241 511l-65 -276h128z" />
    <glyph glyph-name="aogonek" unicode="&#x105;" horiz-adv-x="404" 
d="M384 -118q-19 -32 -44 -48t-63 -16q-47 0 -74.5 22t-27.5 58q0 28 17.5 52.5t55.5 50.5l8 5q-2 17 -4 55q-17 -35 -43 -53t-69 -18q-55 0 -88.5 35.5t-33.5 101.5q0 67 34 101t95 52q46 12 93 20v37q0 72 -52 72q-23 0 -39 -16.5t-17 -56.5h-94q1 76 45.5 117t114.5 41
q80 0 123 -43t43 -131v-181q0 -49 8 -139h-35q-29 -21 -45.5 -42t-16.5 -38q0 -11 6 -16.5t15 -5.5q11 0 19.5 7.5t17.5 22.5zM226 95q14 23 14 62v75q-19 -4 -39 -11q-28 -10 -41.5 -29.5t-13.5 -52.5q0 -67 41 -67q25 0 39 23z" />
    <glyph glyph-name="Cacute" unicode="&#x106;" horiz-adv-x="472" 
d="M193 151q27 -59 73 -59q34 0 57 30.5t35 98.5l100 -22q-18 -114 -69.5 -162.5t-128.5 -48.5q-62 0 -114.5 37.5t-84.5 115.5t-32 194t32 193.5t84.5 114.5t114.5 37q74 0 125.5 -46.5t67.5 -148.5l-99 -22q-12 60 -34 86.5t-54 26.5q-46 0 -73 -58.5t-27 -182.5
q0 -125 27 -184zM265 727h-66l73 120h142v-9z" />
    <glyph glyph-name="cacute" unicode="&#x107;" horiz-adv-x="386" 
d="M117 17.5q-43 27.5 -68 84t-25 139.5t25 140t68 84.5t96 27.5q57 0 98.5 -33t60.5 -102l-90 -32q-11 38 -26.5 56.5t-37.5 18.5q-65 0 -65 -160t66 -160q22 0 37.5 18.5t25.5 57.5l93 -27q-16 -72 -59 -106t-103 -34q-53 0 -96 27.5zM218 543h-63l70 125h134v-11z" />
    <glyph glyph-name="Ccircumflex" unicode="&#x108;" horiz-adv-x="472" 
d="M193 151q27 -59 73 -59q34 0 57 30.5t35 98.5l100 -22q-18 -114 -69.5 -162.5t-128.5 -48.5q-62 0 -114.5 37.5t-84.5 115.5t-32 194t32 193.5t84.5 114.5t114.5 37q74 0 125.5 -46.5t67.5 -148.5l-99 -22q-12 60 -34 86.5t-54 26.5q-46 0 -73 -58.5t-27 -182.5
q0 -125 27 -184zM304 847l94 -120h-66l-76 50l-76 -50h-65l93 120h96z" />
    <glyph glyph-name="ccircumflex" unicode="&#x109;" horiz-adv-x="386" 
d="M117 17.5q-43 27.5 -68 84t-25 139.5t25 140t68 84.5t96 27.5q57 0 98.5 -33t60.5 -102l-90 -32q-11 38 -26.5 56.5t-37.5 18.5q-65 0 -65 -160t66 -160q22 0 37.5 18.5t25.5 57.5l93 -27q-16 -72 -59 -106t-103 -34q-53 0 -96 27.5zM259 668l88 -125h-63l-71 52l-71 -52
h-63l89 125h91z" />
    <glyph glyph-name="Cdotaccent" unicode="&#x10a;" horiz-adv-x="472" 
d="M193 151q27 -59 73 -59q34 0 57 30.5t35 98.5l100 -22q-18 -114 -69.5 -162.5t-128.5 -48.5q-62 0 -114.5 37.5t-84.5 115.5t-32 194t32 193.5t84.5 114.5t114.5 37q74 0 125.5 -46.5t67.5 -148.5l-99 -22q-12 60 -34 86.5t-54 26.5q-46 0 -73 -58.5t-27 -182.5
q0 -125 27 -184zM200 738.5q-22 20.5 -22 52.5q0 34 22 55t56 21q35 0 56.5 -21t21.5 -55q0 -32 -22 -52.5t-56 -20.5t-56 20.5z" />
    <glyph glyph-name="cdotaccent" unicode="&#x10b;" horiz-adv-x="386" 
d="M117 17.5q-43 27.5 -68 84t-25 139.5t25 140t68 84.5t96 27.5q57 0 98.5 -33t60.5 -102l-90 -32q-11 38 -26.5 56.5t-37.5 18.5q-65 0 -65 -160t66 -160q22 0 37.5 18.5t25.5 57.5l93 -27q-16 -72 -59 -106t-103 -34q-53 0 -96 27.5zM160 559.5q-21 19.5 -21 50.5
q0 32 21 52t53 20q33 0 54 -20t21 -52q0 -31 -21 -50.5t-54 -19.5q-32 0 -53 19.5z" />
    <glyph glyph-name="Ccaron" unicode="&#x10c;" horiz-adv-x="472" 
d="M193 151q27 -59 73 -59q34 0 57 30.5t35 98.5l100 -22q-18 -114 -69.5 -162.5t-128.5 -48.5q-62 0 -114.5 37.5t-84.5 115.5t-32 194t32 193.5t84.5 114.5t114.5 37q74 0 125.5 -46.5t67.5 -148.5l-99 -22q-12 60 -34 86.5t-54 26.5q-46 0 -73 -58.5t-27 -182.5
q0 -125 27 -184zM256 798l76 49h66l-94 -120h-96l-93 120h65z" />
    <glyph glyph-name="ccaron" unicode="&#x10d;" horiz-adv-x="386" 
d="M117 17.5q-43 27.5 -68 84t-25 139.5t25 140t68 84.5t96 27.5q57 0 98.5 -33t60.5 -102l-90 -32q-11 38 -26.5 56.5t-37.5 18.5q-65 0 -65 -160t66 -160q22 0 37.5 18.5t25.5 57.5l93 -27q-16 -72 -59 -106t-103 -34q-53 0 -96 27.5zM213 616l71 52h63l-88 -125h-91
l-89 125h63z" />
    <glyph glyph-name="Dcaron" unicode="&#x10e;" horiz-adv-x="529" 
d="M373.5 629q59.5 -39 93.5 -114.5t34 -180.5t-34 -180.5t-93.5 -114.5t-133.5 -39h-190v668h190q74 0 133.5 -39zM225 100q66 0 103 58.5t37 175.5t-37 175.5t-103 58.5h-45v-468h45zM253 798l76 49h66l-94 -120h-96l-93 120h65z" />
    <glyph glyph-name="dcaron" unicode="&#x10f;" horiz-adv-x="542" 
d="M281 668h123v-668h-117v63q-36 -73 -107 -73q-65 0 -109.5 60t-44.5 191t44.5 192t109.5 61t101 -62v236zM469 461l10 207h97v-11l-43 -196h-64zM282 242q0 160 -64 160q-63 0 -63 -160q0 -161 63 -161q64 0 64 161z" />
    <glyph glyph-name="Dcroat" unicode="&#x110;" horiz-adv-x="560" 
d="M405.5 629q59.5 -39 93.5 -114.5t34 -180.5t-34 -180.5t-93.5 -114.5t-134.5 -39h-189v304h-69v77h69v287h189q75 0 134.5 -39zM257 100q65 0 102.5 58.5t37.5 175.5t-37.5 175.5t-102.5 58.5h-45v-187h102v-77h-102v-204h45z" />
    <glyph glyph-name="dcroat" unicode="&#x111;" horiz-adv-x="445" 
d="M467 595v-65h-63v-530h-117v61q-36 -71 -107 -71q-65 0 -109.5 58.5t-44.5 183.5t44.5 184t109.5 59t101 -60v115h-136v65h136v73h123v-73h63zM282 233q0 151 -64 151q-30 0 -46.5 -37t-16.5 -114q0 -78 16.5 -115t46.5 -37q64 0 64 152z" />
    <glyph glyph-name="Emacron" unicode="&#x112;" horiz-adv-x="422" 
d="M180 295v-195h211v-100h-341v668h336v-100h-206v-175h191v-98h-191zM354 735h-266v90h266v-90z" />
    <glyph glyph-name="emacron" unicode="&#x113;" horiz-adv-x="419" 
d="M393 216h-240q3 -73 24 -104t58 -31q50 0 81 64l75 -47q-54 -108 -164 -108q-93 0 -147.5 63.5t-54.5 188.5t52 188.5t138 63.5q83 0 131.5 -62t48.5 -182q0 -12 -2 -34zM154 290h117q-3 62 -16 89t-40 27q-53 0 -61 -116zM340 556h-246v87h246v-87z" />
    <glyph glyph-name="Ebreve" unicode="&#x114;" horiz-adv-x="422" 
d="M180 295v-195h211v-100h-341v668h336v-100h-206v-175h191v-98h-191zM120.5 752q-36.5 32 -41.5 95h67q14 -46 75 -46q62 0 75 46h67q-4 -63 -40.5 -95t-101.5 -32q-64 0 -100.5 32z" />
    <glyph glyph-name="ebreve" unicode="&#x115;" horiz-adv-x="419" 
d="M393 216h-240q3 -73 24 -104t58 -31q50 0 81 64l75 -47q-54 -108 -164 -108q-93 0 -147.5 63.5t-54.5 188.5t52 188.5t138 63.5q83 0 131.5 -62t48.5 -182q0 -12 -2 -34zM154 290h117q-3 62 -16 89t-40 27q-53 0 -61 -116zM127 570.5q-33 33.5 -37 97.5h60q14 -54 67 -54
t67 54h60q-4 -64 -37 -97.5t-90 -33.5t-90 33.5z" />
    <glyph glyph-name="Edotaccent" unicode="&#x116;" horiz-adv-x="422" 
d="M180 295v-195h211v-100h-341v668h336v-100h-206v-175h191v-98h-191zM165 738.5q-22 20.5 -22 52.5q0 34 22 55t56 21q35 0 56.5 -21t21.5 -55q0 -32 -22 -52.5t-56 -20.5t-56 20.5z" />
    <glyph glyph-name="edotaccent" unicode="&#x117;" horiz-adv-x="419" 
d="M393 216h-240q3 -73 24 -104t58 -31q50 0 81 64l75 -47q-54 -108 -164 -108q-93 0 -147.5 63.5t-54.5 188.5t52 188.5t138 63.5q83 0 131.5 -62t48.5 -182q0 -12 -2 -34zM154 290h117q-3 62 -16 89t-40 27q-53 0 -61 -116zM164 559.5q-21 19.5 -21 50.5q0 32 21 52t53 20
q33 0 54 -20t21 -52q0 -31 -21 -50.5t-54 -19.5q-32 0 -53 19.5z" />
    <glyph glyph-name="Eogonek" unicode="&#x118;" horiz-adv-x="422" 
d="M180 295v-195h211v-100h-341v668h336v-100h-206v-175h191v-98h-191zM198 -158q-30 24 -30 62q0 28 12.5 50t43.5 47l17 15l101 7q-34 -26 -52 -47t-18 -44q0 -15 8.5 -23t22.5 -8t25.5 8t24.5 24l52 -49q-22 -33 -52 -49.5t-75 -16.5q-50 0 -80 24z" />
    <glyph glyph-name="eogonek" unicode="&#x119;" horiz-adv-x="419" 
d="M393 216h-240q3 -73 24 -104t58 -31q50 0 81 64l75 -47q-54 -108 -164 -108q-93 0 -147.5 63.5t-54.5 188.5t52 188.5t138 63.5q83 0 131.5 -62t48.5 -182q0 -12 -2 -34zM154 290h117q-3 62 -16 89t-40 27q-53 0 -61 -116zM190.5 -158q-28.5 24 -28.5 62q0 25 12.5 46.5
t39.5 46.5l18 17l93 4q-63 -53 -63 -91q0 -14 7 -21.5t19 -7.5t21.5 7t21.5 23l50 -46q-21 -32 -47.5 -48t-67.5 -16q-47 0 -75.5 24z" />
    <glyph glyph-name="Ecaron" unicode="&#x11a;" horiz-adv-x="422" 
d="M180 295v-195h211v-100h-341v668h336v-100h-206v-175h191v-98h-191zM221 798l76 49h66l-94 -120h-96l-93 120h65z" />
    <glyph glyph-name="ecaron" unicode="&#x11b;" horiz-adv-x="419" 
d="M393 216h-240q3 -73 24 -104t58 -31q50 0 81 64l75 -47q-54 -108 -164 -108q-93 0 -147.5 63.5t-54.5 188.5t52 188.5t138 63.5q83 0 131.5 -62t48.5 -182q0 -12 -2 -34zM154 290h117q-3 62 -16 89t-40 27q-53 0 -61 -116zM217 616l71 52h63l-88 -125h-91l-89 125h63z
" />
    <glyph glyph-name="Gcircumflex" unicode="&#x11c;" horiz-adv-x="518" 
d="M264 346h219v-285q-40 -32 -92.5 -52.5t-106.5 -20.5q-119 0 -187.5 86.5t-68.5 259.5q0 115 32 192.5t87.5 115.5t127.5 38q78 0 133 -46t70 -129l-97 -24q-25 95 -100 95q-54 0 -85 -58t-31 -184q0 -127 30.5 -186t88.5 -59q44 0 83 27v134h-103v96zM324 847l94 -120
h-66l-76 50l-76 -50h-65l93 120h96z" />
    <glyph glyph-name="gcircumflex" unicode="&#x11d;" horiz-adv-x="418" 
d="M373 67.5q40 -37.5 40 -98.5q0 -73 -55 -112t-152 -39q-94 0 -147 32.5t-53 90.5q0 35 23.5 60.5t60.5 37.5q-28 12 -44 31.5t-16 44.5q0 64 83 94q-36 18 -56.5 51t-20.5 81q0 75 46.5 114t118.5 39q37 0 67 -10h140v-83l-66 3q25 -27 25 -72q0 -59 -38 -95.5t-97 -44.5
q-81 -12 -81 -38q0 -10 7 -15t29 -9.5t55 -9.5q18 -2 26 -4q65 -11 105 -48.5zM166 392q-13 -18 -13 -51t13 -51.5t35 -18.5t35 18.5t13 51.5t-13 51t-35 18t-35 -18zM270.5 -87.5q22.5 15.5 22.5 41.5t-22.5 42t-64.5 16q-43 0 -66 -16t-23 -42t22.5 -41.5t66.5 -15.5
q42 0 64.5 15.5zM253 668l88 -125h-63l-71 52l-71 -52h-63l89 125h91z" />
    <glyph glyph-name="Gbreve" unicode="&#x11e;" horiz-adv-x="518" 
d="M264 346h219v-285q-40 -32 -92.5 -52.5t-106.5 -20.5q-119 0 -187.5 86.5t-68.5 259.5q0 115 32 192.5t87.5 115.5t127.5 38q78 0 133 -46t70 -129l-97 -24q-25 95 -100 95q-54 0 -85 -58t-31 -184q0 -127 30.5 -186t88.5 -59q44 0 83 27v134h-103v96zM175.5 752
q-36.5 32 -41.5 95h67q14 -46 75 -46q62 0 75 46h67q-4 -63 -40.5 -95t-101.5 -32q-64 0 -100.5 32z" />
    <glyph glyph-name="gbreve" unicode="&#x11f;" horiz-adv-x="418" 
d="M373 67.5q40 -37.5 40 -98.5q0 -73 -55 -112t-152 -39q-94 0 -147 32.5t-53 90.5q0 35 23.5 60.5t60.5 37.5q-28 12 -44 31.5t-16 44.5q0 64 83 94q-36 18 -56.5 51t-20.5 81q0 75 46.5 114t118.5 39q37 0 67 -10h140v-83l-66 3q25 -27 25 -72q0 -59 -38 -95.5t-97 -44.5
q-81 -12 -81 -38q0 -10 7 -15t29 -9.5t55 -9.5q18 -2 26 -4q65 -11 105 -48.5zM166 392q-13 -18 -13 -51t13 -51.5t35 -18.5t35 18.5t13 51.5t-13 51t-35 18t-35 -18zM270.5 -87.5q22.5 15.5 22.5 41.5t-22.5 42t-64.5 16q-43 0 -66 -16t-23 -42t22.5 -41.5t66.5 -15.5
q42 0 64.5 15.5zM117 570.5q-33 33.5 -37 97.5h60q14 -54 67 -54t67 54h60q-4 -64 -37 -97.5t-90 -33.5t-90 33.5z" />
    <glyph glyph-name="Gdotaccent" unicode="&#x120;" horiz-adv-x="518" 
d="M264 346h219v-285q-40 -32 -92.5 -52.5t-106.5 -20.5q-119 0 -187.5 86.5t-68.5 259.5q0 115 32 192.5t87.5 115.5t127.5 38q78 0 133 -46t70 -129l-97 -24q-25 95 -100 95q-54 0 -85 -58t-31 -184q0 -127 30.5 -186t88.5 -59q44 0 83 27v134h-103v96zM220 738.5
q-22 20.5 -22 52.5q0 34 22 55t56 21q35 0 56.5 -21t21.5 -55q0 -32 -22 -52.5t-56 -20.5t-56 20.5z" />
    <glyph glyph-name="gdotaccent" unicode="&#x121;" horiz-adv-x="418" 
d="M373 67.5q40 -37.5 40 -98.5q0 -73 -55 -112t-152 -39q-94 0 -147 32.5t-53 90.5q0 35 23.5 60.5t60.5 37.5q-28 12 -44 31.5t-16 44.5q0 64 83 94q-36 18 -56.5 51t-20.5 81q0 75 46.5 114t118.5 39q37 0 67 -10h140v-83l-66 3q25 -27 25 -72q0 -59 -38 -95.5t-97 -44.5
q-81 -12 -81 -38q0 -10 7 -15t29 -9.5t55 -9.5q18 -2 26 -4q65 -11 105 -48.5zM166 392q-13 -18 -13 -51t13 -51.5t35 -18.5t35 18.5t13 51.5t-13 51t-35 18t-35 -18zM270.5 -87.5q22.5 15.5 22.5 41.5t-22.5 42t-64.5 16q-43 0 -66 -16t-23 -42t22.5 -41.5t66.5 -15.5
q42 0 64.5 15.5zM153 559.5q-21 19.5 -21 50.5q0 32 21 52t53 20q33 0 54 -20t21 -52q0 -31 -21 -50.5t-54 -19.5q-32 0 -53 19.5z" />
    <glyph glyph-name="uni0122" unicode="&#x122;" horiz-adv-x="518" 
d="M264 346h219v-285q-40 -32 -92.5 -52.5t-106.5 -20.5q-119 0 -187.5 86.5t-68.5 259.5q0 115 32 192.5t87.5 115.5t127.5 38q78 0 133 -46t70 -129l-97 -24q-25 95 -100 95q-54 0 -85 -58t-31 -184q0 -127 30.5 -186t88.5 -59q44 0 83 27v134h-103v96zM227 -171
q35 2 52 13.5t17 24.5v2q-5 -1 -15 -1q-27 0 -43.5 11.5t-16.5 32.5q0 24 17 37.5t45 13.5q32 0 50.5 -19t18.5 -48q0 -49 -32.5 -76.5t-92.5 -29.5v39z" />
    <glyph glyph-name="uni0123" unicode="&#x123;" horiz-adv-x="418" 
d="M373 67.5q40 -37.5 40 -98.5q0 -73 -55 -112t-152 -39q-94 0 -147 32.5t-53 90.5q0 35 23.5 60.5t60.5 37.5q-28 12 -44 31.5t-16 44.5q0 64 83 94q-36 18 -56.5 51t-20.5 81q0 75 46.5 114t118.5 39q37 0 67 -10h140v-83l-66 3q25 -27 25 -72q0 -59 -38 -95.5t-97 -44.5
q-81 -12 -81 -38q0 -10 7 -15t29 -9.5t55 -9.5q18 -2 26 -4q65 -11 105 -48.5zM166 392q-13 -18 -13 -51t13 -51.5t35 -18.5t35 18.5t13 51.5t-13 51t-35 18t-35 -18zM270.5 -87.5q22.5 15.5 22.5 41.5t-22.5 42t-64.5 16q-43 0 -66 -16t-23 -42t22.5 -41.5t66.5 -15.5
q42 0 64.5 15.5zM254 664q-33 -1 -50 -14.5t-17 -26.5v-2q5 1 15 1q25 0 41 -12.5t16 -33.5q0 -22 -16 -35t-43 -13q-30 0 -48.5 19.5t-18.5 47.5q0 51 31.5 77.5t89.5 28.5v-37z" />
    <glyph glyph-name="Hcircumflex" unicode="&#x124;" horiz-adv-x="518" 
d="M338 393v275h130v-668h-130v295h-158v-295h-130v668h130v-275h158zM307 847l94 -120h-66l-76 50l-76 -50h-65l93 120h96z" />
    <glyph glyph-name="hcircumflex" unicode="&#x125;" horiz-adv-x="431" 
d="M357.5 457q34.5 -37 34.5 -101v-356h-124v341q0 32 -10 46.5t-32 14.5q-27 0 -44 -24t-17 -72v-306h-124v668h124v-232q16 27 42.5 42.5t62.5 15.5q53 0 87.5 -37zM258 847l94 -120h-66l-76 50l-76 -50h-65l93 120h96z" />
    <glyph glyph-name="Hbar" unicode="&#x126;" horiz-adv-x="570" 
d="M495 561h73v-77h-73v-484h-131v283h-158v-283h-130v484h-74v77h74v107h130v-107h158v107h131v-107zM206 382h158v102h-158v-102z" />
    <glyph glyph-name="hbar" unicode="&#x127;" horiz-adv-x="431" 
d="M357.5 438.5q34.5 -36.5 34.5 -100.5v-338h-124v323q0 32 -10 46.5t-32 14.5q-27 0 -44 -24t-17 -72v-288h-124v530h-62v65h62v73h124v-73h136v-65h-136v-112q34 57 105 57q53 0 87.5 -36.5z" />
    <glyph glyph-name="Itilde" unicode="&#x128;" horiz-adv-x="230" 
d="M177.5 816q4.5 8 5.5 27h64q-1 -116 -85 -116q-31 0 -63 25q-20 15 -30 15q-20 0 -21 -35h-64q2 116 85 116q20 0 33.5 -6.5t30.5 -18.5q20 -15 30 -15t14.5 8zM50 0v668h130v-668h-130z" />
    <glyph glyph-name="itilde" unicode="&#x129;" horiz-adv-x="206" 
d="M119.5 551q-12.5 6 -27.5 19q-18 16 -31 16q-18 0 -22 -36h-59q5 117 75 117q33 0 60 -25q21 -16 31 -16q17 0 22 36h59q-3 -64 -25.5 -90.5t-50.5 -26.5q-19 0 -31.5 6zM41 0v484h124v-484h-124z" />
    <glyph glyph-name="Imacron" unicode="&#x12a;" horiz-adv-x="230" 
d="M227 737h-224v87h224v-87zM50 0v668h130v-668h-130z" />
    <glyph glyph-name="imacron" unicode="&#x12b;" horiz-adv-x="206" 
d="M211 556h-215v87h215v-87zM41 0v484h124v-484h-124z" />
    <glyph glyph-name="Ibreve" unicode="&#x12c;" horiz-adv-x="230" 
d="M31 753q-30 33 -32 94h60q4 -25 19 -37t37 -12t37.5 12t18.5 37h61q-2 -61 -32.5 -94t-84.5 -33t-84 33zM50 0v668h130v-668h-130z" />
    <glyph glyph-name="ibreve" unicode="&#x12d;" horiz-adv-x="206" 
d="M21 570.5q-29 33.5 -34 97.5h60q4 -27 19.5 -40.5t36.5 -13.5q22 0 37 13t19 41h60q-4 -64 -33.5 -97.5t-82.5 -33.5t-82 33.5zM41 0v484h124v-484h-124z" />
    <glyph glyph-name="Iogonek" unicode="&#x12e;" horiz-adv-x="230" 
d="M211 -116q-19 -33 -44.5 -49.5t-64.5 -16.5q-49 0 -78 23.5t-29 61.5q0 25 14 49.5t36 44.5l5 5v666h130v-668h-42q-39 -41 -39 -73q0 -12 6 -19t15 -7q12 0 21 8t19 24z" />
    <glyph glyph-name="iogonek" unicode="&#x12f;" horiz-adv-x="206" 
d="M50 559.5q-21 19.5 -21 50.5q0 32 21 52t53 20q33 0 54 -20t21 -52q0 -31 -21 -50.5t-54 -19.5q-32 0 -53 19.5zM195 -118q-19 -32 -44 -48t-63 -16q-47 0 -75 24t-28 63q0 24 13 46t37 45l6 6v482h124v-484h-38q-42 -42 -42 -77q0 -12 6 -18.5t15 -6.5q11 0 19.5 7.5
t17.5 22.5z" />
    <glyph glyph-name="Idotaccent" unicode="&#x130;" horiz-adv-x="230" 
d="M50 0v668h130v-668h-130zM59 738.5q-22 20.5 -22 52.5q0 34 22 55t56 21q35 0 56.5 -21t21.5 -55q0 -32 -22 -52.5t-56 -20.5t-56 20.5z" />
    <glyph glyph-name="dotlessi" unicode="&#x131;" horiz-adv-x="206" 
d="M41 0v484h124v-484h-124z" />
    <glyph glyph-name="Jcircumflex" unicode="&#x134;" horiz-adv-x="295" 
d="M5 -110v106q24 -6 50 -6q61 0 61 76v602h130v-621q0 -82 -43.5 -123t-120.5 -41q-43 0 -77 7zM233 847l94 -120h-66l-76 50l-76 -50h-65l93 120h96z" />
    <glyph glyph-name="jcircumflex" unicode="&#x135;" horiz-adv-x="212" 
d="M64 668h91l80 -125h-62l-64 56l-64 -56h-62zM47 484h124v-533q0 -71 -33.5 -102t-99.5 -31q-48 0 -73 5v90q30 -4 38 -4q22 0 33 13t11 44v518z" />
    <glyph glyph-name="uni0136" unicode="&#x136;" horiz-adv-x="486" 
d="M496 0h-148l-149 298h-19v-298h-130v668h130v-271h17l164 271h119l-183 -295zM204 -171q35 2 52 13.5t17 24.5v2q-5 -1 -15 -1q-27 0 -43.5 11.5t-16.5 32.5q0 24 17 37.5t45 13.5q32 0 50.5 -19t18.5 -48q0 -49 -32.5 -76.5t-92.5 -29.5v39z" />
    <glyph glyph-name="uni0137" unicode="&#x137;" horiz-adv-x="403" 
d="M409 0h-138l-92 221h-14v-221h-124v668h124v-361h14l104 177h110l-117 -196zM158 -173q33 2 50 15.5t17 26.5v1q-5 -1 -15 -1q-25 0 -41 12.5t-16 33.5q0 23 16 35.5t43 12.5q31 0 49 -19t18 -48q0 -51 -31.5 -77.5t-89.5 -28.5v37z" />
    <glyph glyph-name="Lacute" unicode="&#x139;" horiz-adv-x="393" 
d="M180 668v-568h200v-100h-330v668h130zM114 727h-66l73 120h142v-9z" />
    <glyph glyph-name="lacute" unicode="&#x13a;" horiz-adv-x="227" 
d="M212 -3q-27 -7 -71 -7q-49 0 -75 24.5t-26 80.5v573h124v-554q0 -19 6 -26t18 -7q11 0 24 3v-87zM109 727h-66l73 120h142v-9z" />
    <glyph glyph-name="uni013B" unicode="&#x13b;" horiz-adv-x="393" 
d="M180 668v-568h200v-100h-330v668h130zM163 -171q35 2 52 13.5t17 24.5v2q-5 -1 -15 -1q-27 0 -43.5 11.5t-16.5 32.5q0 24 17 37.5t45 13.5q32 0 50.5 -19t18.5 -48q0 -49 -32.5 -76.5t-92.5 -29.5v39z" />
    <glyph glyph-name="uni013C" unicode="&#x13c;" horiz-adv-x="227" 
d="M212 -3q-27 -7 -71 -7q-49 0 -75 24.5t-26 80.5v573h124v-554q0 -19 6 -26t18 -7q11 0 24 3v-87zM71 -173q33 2 50 15.5t17 26.5v1q-5 -1 -15 -1q-25 0 -41 12.5t-16 33.5q0 23 16 35.5t43 12.5q31 0 49 -19t18 -48q0 -51 -31.5 -77.5t-89.5 -28.5v37z" />
    <glyph glyph-name="Lcaron" unicode="&#x13d;" horiz-adv-x="403" 
d="M180 668v-568h200v-100h-330v668h130zM366 668v-11l-42 -196h-64l10 207h96z" />
    <glyph glyph-name="lcaron" unicode="&#x13e;" horiz-adv-x="295" 
d="M212 -3q-27 -7 -71 -7q-49 0 -75 24.5t-26 80.5v573h124v-554q0 -19 6 -26t18 -7q11 0 24 3v-87zM290 461h-64l10 207h96v-11z" />
    <glyph glyph-name="Ldot" unicode="&#x13f;" horiz-adv-x="406" 
d="M50 668h130v-568h200v-100h-330v668zM265 311q-20 19 -20 49q0 31 20 50t51 19q32 0 52 -19t20 -50q0 -30 -20 -49t-52 -19q-31 0 -51 19z" />
    <glyph glyph-name="ldot" unicode="&#x140;" horiz-adv-x="359" 
d="M212 -3q-27 -7 -71 -7q-49 0 -75 24.5t-26 80.5v573h124v-554q0 -19 6 -26t18 -7q11 0 24 3v-87zM232.5 298q-19.5 19 -19.5 48q0 31 19.5 50t49.5 19t49 -19t19 -50q0 -29 -19.5 -48t-48.5 -19q-30 0 -49.5 19z" />
    <glyph glyph-name="Lslash" unicode="&#x141;" horiz-adv-x="436" 
d="M222 331v-231h200v-100h-331v277l-75 -37v85l75 36v307h131v-252l103 50v-85z" />
    <glyph glyph-name="lslash" unicode="&#x142;" horiz-adv-x="279" 
d="M259 356l-60 -29v-213q0 -19 6 -26t18 -7t24 3v-87q-27 -7 -70 -7q-50 0 -75.5 24.5t-25.5 80.5v181l-63 -29v71l63 30v320h123v-269l60 29v-72z" />
    <glyph glyph-name="Nacute" unicode="&#x143;" horiz-adv-x="530" 
d="M371 200v468h109v-668h-165l-156 467v-467h-109v668h164zM274 727h-66l73 120h142v-9z" />
    <glyph glyph-name="nacute" unicode="&#x144;" horiz-adv-x="431" 
d="M357.5 457q34.5 -37 34.5 -101v-356h-124v341q0 32 -10 46.5t-32 14.5q-27 0 -44 -24t-17 -72v-306h-124v484h117v-61q16 33 44 52t68 19q53 0 87.5 -37zM231 543h-63l70 125h134v-11z" />
    <glyph glyph-name="uni0145" unicode="&#x145;" horiz-adv-x="530" 
d="M371 200v468h109v-668h-165l-156 467v-467h-109v668h164zM210 -171q35 2 52 13.5t17 24.5v2q-5 -1 -15 -1q-27 0 -43.5 11.5t-16.5 32.5q0 24 17 37.5t45 13.5q32 0 50.5 -19t18.5 -48q0 -49 -32.5 -76.5t-92.5 -29.5v39z" />
    <glyph glyph-name="uni0146" unicode="&#x146;" horiz-adv-x="431" 
d="M357.5 457q34.5 -37 34.5 -101v-356h-124v341q0 32 -10 46.5t-32 14.5q-27 0 -44 -24t-17 -72v-306h-124v484h117v-61q16 33 44 52t68 19q53 0 87.5 -37zM161 -173q33 2 50 15.5t17 26.5v1q-5 -1 -15 -1q-25 0 -41 12.5t-16 33.5q0 23 16 35.5t43 12.5q31 0 49 -19
t18 -48q0 -51 -31.5 -77.5t-89.5 -28.5v37z" />
    <glyph glyph-name="Ncaron" unicode="&#x147;" horiz-adv-x="530" 
d="M371 200v468h109v-668h-165l-156 467v-467h-109v668h164zM266 798l76 49h66l-94 -120h-96l-93 120h65z" />
    <glyph glyph-name="ncaron" unicode="&#x148;" horiz-adv-x="431" 
d="M357.5 457q34.5 -37 34.5 -101v-356h-124v341q0 32 -10 46.5t-32 14.5q-27 0 -44 -24t-17 -72v-306h-124v484h117v-61q16 33 44 52t68 19q53 0 87.5 -37zM226 616l71 52h63l-88 -125h-91l-89 125h63z" />
    <glyph glyph-name="Eng" unicode="&#x14a;" horiz-adv-x="530" 
d="M480 668v-688q0 -149 -168 -149q-40 0 -65 6v86q30 -4 47 -4q71 0 77 59l-212 497v-475h-109v668h155l166 -393v393h109z" />
    <glyph glyph-name="eng" unicode="&#x14b;" horiz-adv-x="431" 
d="M357.5 457q34.5 -37 34.5 -101v-405q0 -71 -33.5 -102t-99.5 -31q-48 0 -73 5v90q30 -4 38 -4q22 0 33 13t11 44v375q0 32 -10 46.5t-32 14.5q-27 0 -44 -24t-17 -72v-306h-124v484h117v-61q16 33 44 52t68 19q53 0 87.5 -37z" />
    <glyph glyph-name="Omacron" unicode="&#x14c;" horiz-adv-x="546" 
d="M146 26.5q-55 38.5 -86 116t-31 191.5t31 192t86 116t127 38t127 -38.5t86.5 -116t31.5 -191.5t-31.5 -191.5t-86.5 -116t-127 -38.5t-127 38.5zM352 150.5q29 58.5 29 183.5t-29 183.5t-79 58.5t-79 -58.5t-29 -183.5t29 -183.5t79 -58.5t79 58.5zM406 735h-266v90h266
v-90z" />
    <glyph glyph-name="omacron" unicode="&#x14d;" horiz-adv-x="434" 
d="M77.5 55q-53.5 65 -53.5 187q0 81 25 138t68.5 85.5t99.5 28.5t99.5 -28.5t68.5 -85.5t25 -138q0 -122 -53.5 -187t-139.5 -65t-139.5 65zM264.5 119q16.5 38 16.5 123t-16.5 122.5t-47.5 37.5q-64 0 -64 -160q0 -161 64 -161q31 0 47.5 38zM339 556h-246v87h246v-87z
" />
    <glyph glyph-name="Obreve" unicode="&#x14e;" horiz-adv-x="546" 
d="M146 26.5q-55 38.5 -86 116t-31 191.5t31 192t86 116t127 38t127 -38.5t86.5 -116t31.5 -191.5t-31.5 -191.5t-86.5 -116t-127 -38.5t-127 38.5zM352 150.5q29 58.5 29 183.5t-29 183.5t-79 58.5t-79 -58.5t-29 -183.5t29 -183.5t79 -58.5t79 58.5zM172.5 752
q-36.5 32 -41.5 95h67q14 -46 75 -46q62 0 75 46h67q-4 -63 -40.5 -95t-101.5 -32q-64 0 -100.5 32z" />
    <glyph glyph-name="obreve" unicode="&#x14f;" horiz-adv-x="434" 
d="M77.5 55q-53.5 65 -53.5 187q0 81 25 138t68.5 85.5t99.5 28.5t99.5 -28.5t68.5 -85.5t25 -138q0 -122 -53.5 -187t-139.5 -65t-139.5 65zM264.5 119q16.5 38 16.5 123t-16.5 122.5t-47.5 37.5q-64 0 -64 -160q0 -161 64 -161q31 0 47.5 38zM126 570.5q-33 33.5 -37 97.5
h60q14 -54 67 -54t67 54h60q-4 -64 -37 -97.5t-90 -33.5t-90 33.5z" />
    <glyph glyph-name="Ohungarumlaut" unicode="&#x150;" horiz-adv-x="546" 
d="M146 26.5q-55 38.5 -86 116t-31 191.5t31 192t86 116t127 38t127 -38.5t86.5 -116t31.5 -191.5t-31.5 -191.5t-86.5 -116t-127 -38.5t-127 38.5zM352 150.5q29 58.5 29 183.5t-29 183.5t-79 58.5t-79 -58.5t-29 -183.5t29 -183.5t79 -58.5t79 58.5zM214 727h-61l46 120
h122v-10zM374 727h-64l64 120h121v-10z" />
    <glyph glyph-name="ohungarumlaut" unicode="&#x151;" horiz-adv-x="434" 
d="M77.5 55q-53.5 65 -53.5 187q0 81 25 138t68.5 85.5t99.5 28.5t99.5 -28.5t68.5 -85.5t25 -138q0 -122 -53.5 -187t-139.5 -65t-139.5 65zM264.5 119q16.5 38 16.5 123t-16.5 122.5t-47.5 37.5q-64 0 -64 -160q0 -161 64 -161q31 0 47.5 38zM164 543h-58l42 125h117v-11z
M310 543h-61l61 125h115v-11z" />
    <glyph glyph-name="OE" unicode="&#x152;" horiz-adv-x="737" 
d="M502 100h204v-100h-327v68q-50 -80 -138 -80q-61 0 -108.5 38t-75 115.5t-27.5 192.5t27.5 192.5t75 115.5t108.5 38q88 0 138 -80v68h323v-100h-200v-175h184v-98h-184v-195zM345.5 150q27.5 58 27.5 184t-27.5 184t-75.5 58q-49 0 -76.5 -58.5t-27.5 -183.5
t27.5 -183.5t76.5 -58.5q48 0 75.5 58z" />
    <glyph glyph-name="oe" unicode="&#x153;" horiz-adv-x="665" 
d="M565 145l75 -47q-55 -108 -165 -108q-89 0 -135 68q-47 -68 -131 -68q-53 0 -95 28.5t-66 85.5t-24 138t24 138t66 85.5t95 28.5q82 0 130 -66q45 66 127 66q80 0 127 -62t47 -182q0 -12 -2 -34h-234q3 -73 23 -104t58 -31q50 0 80 64zM404 290h113q-2 63 -15 89.5
t-39 26.5q-51 0 -59 -116zM275 242q0 160 -61 160t-61 -160q0 -161 61 -161t61 161z" />
    <glyph glyph-name="Racute" unicode="&#x154;" horiz-adv-x="477" 
d="M331 0l-116 267h-35v-267h-130v668h177q58 0 106 -23t76.5 -67.5t28.5 -106.5t-28 -107.5t-76 -68.5l143 -295h-146zM180 570v-205h38q39 0 61.5 25.5t22.5 77.5q0 50 -22.5 76t-61.5 26h-38zM235 727h-66l73 120h142v-9z" />
    <glyph glyph-name="racute" unicode="&#x155;" horiz-adv-x="310" 
d="M298 488v-111q-38 4 -49 4q-45 0 -64.5 -32.5t-19.5 -105.5v-243h-124v484h116v-85q13 45 39.5 70t65.5 25q21 0 36 -6zM173 543h-63l70 125h134v-11z" />
    <glyph glyph-name="uni0156" unicode="&#x156;" horiz-adv-x="477" 
d="M331 0l-116 267h-35v-267h-130v668h177q58 0 106 -23t76.5 -67.5t28.5 -106.5t-28 -107.5t-76 -68.5l143 -295h-146zM180 570v-205h38q39 0 61.5 25.5t22.5 77.5q0 50 -22.5 76t-61.5 26h-38zM192 -171q35 2 52 13.5t17 24.5v2q-5 -1 -15 -1q-27 0 -43.5 11.5t-16.5 32.5
q0 24 17 37.5t45 13.5q32 0 50.5 -19t18.5 -48q0 -49 -32.5 -76.5t-92.5 -29.5v39z" />
    <glyph glyph-name="uni0157" unicode="&#x157;" horiz-adv-x="310" 
d="M298 488v-111q-38 4 -49 4q-45 0 -64.5 -32.5t-19.5 -105.5v-243h-124v484h116v-85q13 45 39.5 70t65.5 25q21 0 36 -6zM51 -173q33 2 50 15.5t17 26.5v1q-5 -1 -15 -1q-25 0 -41 12.5t-16 33.5q0 23 16 35.5t43 12.5q31 0 49 -19t18 -48q0 -51 -31.5 -77.5t-89.5 -28.5
v37z" />
    <glyph glyph-name="Rcaron" unicode="&#x158;" horiz-adv-x="477" 
d="M331 0l-116 267h-35v-267h-130v668h177q58 0 106 -23t76.5 -67.5t28.5 -106.5t-28 -107.5t-76 -68.5l143 -295h-146zM180 570v-205h38q39 0 61.5 25.5t22.5 77.5q0 50 -22.5 76t-61.5 26h-38zM227 798l76 49h66l-94 -120h-96l-93 120h65z" />
    <glyph glyph-name="rcaron" unicode="&#x159;" horiz-adv-x="310" 
d="M298 488v-111q-38 4 -49 4q-45 0 -64.5 -32.5t-19.5 -105.5v-243h-124v484h116v-85q13 45 39.5 70t65.5 25q21 0 36 -6zM167 616l71 52h63l-88 -125h-91l-89 125h63z" />
    <glyph glyph-name="Sacute" unicode="&#x15a;" horiz-adv-x="449" 
d="M103 185q16 -47 47 -71.5t64 -24.5q39 0 62.5 20t23.5 56q0 31 -22 55.5t-61 47.5l-59 37q-64 38 -95 85.5t-31 111.5q0 49 22.5 90t65 64.5t99.5 23.5q137 0 198 -139l-92 -44q-15 38 -40 60t-57 22q-31 0 -49.5 -18t-18.5 -49q0 -32 21 -55t65 -50l60 -36
q57 -36 89.5 -79t32.5 -113q0 -58 -27 -101t-74 -66.5t-105 -23.5q-66 0 -124.5 36.5t-83.5 115.5zM233 727h-66l73 120h142v-9z" />
    <glyph glyph-name="sacute" unicode="&#x15b;" horiz-adv-x="367" 
d="M84 145q18 -32 41.5 -48.5t51.5 -16.5q26 0 41.5 11.5t15.5 31.5t-15 34t-46 30l-45 25q-48 26 -73 60t-25 84q0 60 43 98.5t111 38.5q50 0 88.5 -22t67.5 -70l-71 -51q-15 24 -35 39t-44 15q-21 0 -33.5 -10.5t-12.5 -29.5q0 -16 12 -28.5t38 -27.5l45 -24
q51 -30 80.5 -62t29.5 -86q0 -67 -44.5 -106.5t-120.5 -39.5q-118 0 -174 108zM190 543h-63l70 125h134v-11z" />
    <glyph glyph-name="Scircumflex" unicode="&#x15c;" horiz-adv-x="449" 
d="M103 185q16 -47 47 -71.5t64 -24.5q39 0 62.5 20t23.5 56q0 31 -22 55.5t-61 47.5l-59 37q-64 38 -95 85.5t-31 111.5q0 49 22.5 90t65 64.5t99.5 23.5q137 0 198 -139l-92 -44q-15 38 -40 60t-57 22q-31 0 -49.5 -18t-18.5 -49q0 -32 21 -55t65 -50l60 -36
q57 -36 89.5 -79t32.5 -113q0 -58 -27 -101t-74 -66.5t-105 -23.5q-66 0 -124.5 36.5t-83.5 115.5zM273 847l94 -120h-66l-76 50l-76 -50h-65l93 120h96z" />
    <glyph glyph-name="scircumflex" unicode="&#x15d;" horiz-adv-x="367" 
d="M84 145q18 -32 41.5 -48.5t51.5 -16.5q26 0 41.5 11.5t15.5 31.5t-15 34t-46 30l-45 25q-48 26 -73 60t-25 84q0 60 43 98.5t111 38.5q50 0 88.5 -22t67.5 -70l-71 -51q-15 24 -35 39t-44 15q-21 0 -33.5 -10.5t-12.5 -29.5q0 -16 12 -28.5t38 -27.5l45 -24
q51 -30 80.5 -62t29.5 -86q0 -67 -44.5 -106.5t-120.5 -39.5q-118 0 -174 108zM231 668l88 -125h-63l-71 52l-71 -52h-63l89 125h91z" />
    <glyph glyph-name="Scedilla" unicode="&#x15e;" horiz-adv-x="449" 
d="M103 185q16 -47 47 -71.5t64 -24.5q39 0 62.5 20t23.5 56q0 31 -22 55.5t-61 47.5l-59 37q-64 38 -95 85.5t-31 111.5q0 49 22.5 90t65 64.5t99.5 23.5q137 0 198 -139l-92 -44q-15 38 -40 60t-57 22q-31 0 -49.5 -18t-18.5 -49q0 -32 21 -55t65 -50l60 -36
q57 -36 89.5 -79t32.5 -113q0 -58 -27 -101t-74 -66.5t-105 -23.5q-66 0 -124.5 36.5t-83.5 115.5zM310.5 -56.5q23.5 -18.5 23.5 -46.5q0 -38 -29.5 -58.5t-77.5 -20.5t-78 20l20 49q21 -12 41 -12q14 0 22.5 6.5t8.5 18.5q0 9 -5.5 15t-16.5 6q-14 0 -25 -9l-24 14l54 97
h53l-37 -61h9q38 0 61.5 -18.5z" />
    <glyph glyph-name="scedilla" unicode="&#x15f;" horiz-adv-x="367" 
d="M84 145q18 -32 41.5 -48.5t51.5 -16.5q26 0 41.5 11.5t15.5 31.5t-15 34t-46 30l-45 25q-48 26 -73 60t-25 84q0 60 43 98.5t111 38.5q50 0 88.5 -22t67.5 -70l-71 -51q-15 24 -35 39t-44 15q-21 0 -33.5 -10.5t-12.5 -29.5q0 -16 12 -28.5t38 -27.5l45 -24
q51 -30 80.5 -62t29.5 -86q0 -67 -44.5 -106.5t-120.5 -39.5q-118 0 -174 108zM255 -58q22 -18 22 -48q0 -36 -28.5 -56t-73.5 -20q-46 0 -75 19l19 48q19 -13 40 -13q12 0 20.5 6.5t8.5 18.5q0 11 -6.5 17.5t-18.5 6.5t-23 -9l-23 14l55 98h51l-39 -65q4 1 12 1
q37 0 59 -18z" />
    <glyph glyph-name="Scaron" unicode="&#x160;" horiz-adv-x="449" 
d="M103 185q16 -47 47 -71.5t64 -24.5q39 0 62.5 20t23.5 56q0 31 -22 55.5t-61 47.5l-59 37q-64 38 -95 85.5t-31 111.5q0 49 22.5 90t65 64.5t99.5 23.5q137 0 198 -139l-92 -44q-15 38 -40 60t-57 22q-31 0 -49.5 -18t-18.5 -49q0 -32 21 -55t65 -50l60 -36
q57 -36 89.5 -79t32.5 -113q0 -58 -27 -101t-74 -66.5t-105 -23.5q-66 0 -124.5 36.5t-83.5 115.5zM225 798l76 49h66l-94 -120h-96l-93 120h65z" />
    <glyph glyph-name="scaron" unicode="&#x161;" horiz-adv-x="367" 
d="M84 145q18 -32 41.5 -48.5t51.5 -16.5q26 0 41.5 11.5t15.5 31.5t-15 34t-46 30l-45 25q-48 26 -73 60t-25 84q0 60 43 98.5t111 38.5q50 0 88.5 -22t67.5 -70l-71 -51q-15 24 -35 39t-44 15q-21 0 -33.5 -10.5t-12.5 -29.5q0 -16 12 -28.5t38 -27.5l45 -24
q51 -30 80.5 -62t29.5 -86q0 -67 -44.5 -106.5t-120.5 -39.5q-118 0 -174 108zM185 616l71 52h63l-88 -125h-91l-89 125h63z" />
    <glyph glyph-name="uni0162" unicode="&#x162;" horiz-adv-x="434" 
d="M420 668v-100h-137v-568h-131v568h-138v100h406zM285.5 -56.5q23.5 -18.5 23.5 -46.5q0 -38 -29.5 -58.5t-77.5 -20.5t-78 20l20 49q21 -12 41 -12q14 0 22.5 6.5t8.5 18.5q0 9 -5.5 15t-16.5 6q-14 0 -25 -9l-24 14l54 97h53l-37 -61h9q38 0 61.5 -18.5z" />
    <glyph glyph-name="uni0163" unicode="&#x163;" horiz-adv-x="306" 
d="M296 397h-89v-268q0 -26 9.5 -37t28.5 -11q23 0 44 7v-87q-33 -11 -92 -11q-51 0 -82 28t-31 83v296h-74v87h74v99l123 43v-142h89v-87zM259 -58q22 -18 22 -48q0 -36 -28.5 -56t-73.5 -20q-46 0 -75 19l19 48q19 -13 40 -13q12 0 20.5 6.5t8.5 18.5q0 11 -6.5 17.5
t-18.5 6.5t-23 -9l-23 14l55 98h51l-39 -65q4 1 12 1q37 0 59 -18z" />
    <glyph glyph-name="Tcaron" unicode="&#x164;" horiz-adv-x="434" 
d="M420 668v-100h-137v-568h-131v568h-138v100h406zM217 798l76 49h66l-94 -120h-96l-93 120h65z" />
    <glyph glyph-name="tcaron" unicode="&#x165;" horiz-adv-x="306" 
d="M244 522l8 158h83v-11l-30 -147h-61zM207 626v-142h89v-87h-89v-268q0 -26 9.5 -37t28.5 -11q23 0 44 7v-87q-33 -11 -92 -11q-51 0 -82 28t-31 83v296h-74v87h74v99z" />
    <glyph glyph-name="Tbar" unicode="&#x166;" horiz-adv-x="447" 
d="M427 668v-100h-138v-203h84v-78h-84v-287h-130v287h-85v78h85v203h-139v100h407z" />
    <glyph glyph-name="tbar" unicode="&#x167;" horiz-adv-x="315" 
d="M300 397h-88v-113h82v-65h-82v-90q0 -26 9.5 -37t27.5 -11q23 0 45 7v-87q-34 -11 -92 -11q-52 0 -83 28t-31 83v118h-67v65h67v113h-74v87h74v99l124 43v-142h88v-87z" />
    <glyph glyph-name="Utilde" unicode="&#x168;" horiz-adv-x="495" 
d="M102.5 39q-55.5 51 -55.5 149v480h130v-472q0 -104 79 -104q40 0 60.5 24.5t20.5 79.5v472h111v-480q0 -98 -55.5 -149t-144.5 -51q-90 0 -145.5 51zM273 729.5q-14 6.5 -24 13t-13 8.5q-23 15 -33 15q-28 0 -32 -38h-65q3 69 31.5 95.5t64.5 26.5q22 0 37.5 -6.5
t32.5 -18.5q12 -9 20 -13.5t15 -4.5q26 0 31 38h65q-3 -67 -31 -94.5t-66 -27.5q-19 0 -33 6.5z" />
    <glyph glyph-name="utilde" unicode="&#x169;" horiz-adv-x="431" 
d="M266 484h124v-484h-117v61q-16 -33 -44 -52t-68 -19q-53 0 -87.5 37t-34.5 101v356h124v-341q0 -32 10 -46.5t32 -14.5q27 0 44 24t17 72v306zM227.5 552.5q-15.5 7.5 -30.5 19.5q-8 5 -16 9.5t-14 4.5q-25 0 -29 -36h-61q3 66 29.5 91.5t60.5 25.5q20 0 34.5 -6.5
t30.5 -18.5q20 -16 31 -16q23 0 28 36h61q-3 -65 -29 -91t-61 -26q-19 0 -34.5 7.5z" />
    <glyph glyph-name="Umacron" unicode="&#x16a;" horiz-adv-x="495" 
d="M102.5 39q-55.5 51 -55.5 149v480h130v-472q0 -104 79 -104q40 0 60.5 24.5t20.5 79.5v472h111v-480q0 -98 -55.5 -149t-144.5 -51q-90 0 -145.5 51zM387 735h-266v90h266v-90z" />
    <glyph glyph-name="umacron" unicode="&#x16b;" horiz-adv-x="431" 
d="M266 484h124v-484h-117v61q-16 -33 -44 -52t-68 -19q-53 0 -87.5 37t-34.5 101v356h124v-341q0 -32 10 -46.5t32 -14.5q27 0 44 24t17 72v306zM338 556h-246v87h246v-87z" />
    <glyph glyph-name="Ubreve" unicode="&#x16c;" horiz-adv-x="495" 
d="M102.5 39q-55.5 51 -55.5 149v480h130v-472q0 -104 79 -104q40 0 60.5 24.5t20.5 79.5v472h111v-480q0 -98 -55.5 -149t-144.5 -51q-90 0 -145.5 51zM153.5 752q-36.5 32 -41.5 95h67q14 -46 75 -46q62 0 75 46h67q-4 -63 -40.5 -95t-101.5 -32q-64 0 -100.5 32z" />
    <glyph glyph-name="ubreve" unicode="&#x16d;" horiz-adv-x="431" 
d="M266 484h124v-484h-117v61q-16 -33 -44 -52t-68 -19q-53 0 -87.5 37t-34.5 101v356h124v-341q0 -32 10 -46.5t32 -14.5q27 0 44 24t17 72v306zM124 570.5q-33 33.5 -37 97.5h60q14 -54 67 -54t67 54h60q-4 -64 -37 -97.5t-90 -33.5t-90 33.5z" />
    <glyph glyph-name="Uring" unicode="&#x16e;" horiz-adv-x="495" 
d="M102.5 39q-55.5 51 -55.5 149v480h130v-472q0 -104 79 -104q40 0 60.5 24.5t20.5 79.5v472h111v-480q0 -98 -55.5 -149t-144.5 -51q-90 0 -145.5 51zM168.5 747q-33.5 30 -33.5 75q0 46 33 76t86 30t86 -30t33 -76q0 -45 -33.5 -75t-85.5 -30t-85.5 30zM282.5 793.5
q11.5 11.5 11.5 28.5q0 18 -11 29.5t-29 11.5t-29 -12t-11 -29t11 -28.5t29 -11.5q17 0 28.5 11.5z" />
    <glyph glyph-name="uring" unicode="&#x16f;" horiz-adv-x="431" 
d="M266 484h124v-484h-117v61q-16 -33 -44 -52t-68 -19q-53 0 -87.5 37t-34.5 101v356h124v-341q0 -32 10 -46.5t32 -14.5q27 0 44 24t17 72v306zM131 570q-32 29 -32 73q0 43 32 72.5t82 29.5t82.5 -29.5t32.5 -72.5q0 -44 -32.5 -73t-82.5 -29t-82 29zM241.5 615
q11.5 11 11.5 28t-11 28t-29 11q-17 0 -27.5 -11.5t-10.5 -27.5q0 -17 10.5 -28t27.5 -11t28.5 11z" />
    <glyph glyph-name="Uhungarumlaut" unicode="&#x170;" horiz-adv-x="495" 
d="M102.5 39q-55.5 51 -55.5 149v480h130v-472q0 -104 79 -104q40 0 60.5 24.5t20.5 79.5v472h111v-480q0 -98 -55.5 -149t-144.5 -51q-90 0 -145.5 51zM195 727h-61l46 120h122v-10zM355 727h-64l64 120h121v-10z" />
    <glyph glyph-name="uhungarumlaut" unicode="&#x171;" horiz-adv-x="431" 
d="M266 484h124v-484h-117v61q-16 -33 -44 -52t-68 -19q-53 0 -87.5 37t-34.5 101v356h124v-341q0 -32 10 -46.5t32 -14.5q27 0 44 24t17 72v306zM163 543h-58l42 125h117v-11zM309 543h-61l61 125h115v-11z" />
    <glyph glyph-name="Uogonek" unicode="&#x172;" horiz-adv-x="495" 
d="M102.5 39q-55.5 51 -55.5 149v480h130v-472q0 -104 79 -104q40 0 60.5 24.5t20.5 79.5v472h111v-480q0 -98 -55.5 -149t-144.5 -51q-90 0 -145.5 51zM228 -158q-30 24 -30 62q0 28 12.5 50t43.5 47l17 15l101 7q-34 -26 -52 -47t-18 -44q0 -15 8.5 -23t22.5 -8t25.5 8
t24.5 24l52 -49q-22 -33 -52 -49.5t-75 -16.5q-50 0 -80 24z" />
    <glyph glyph-name="uogonek" unicode="&#x173;" horiz-adv-x="431" 
d="M403 -118q-19 -32 -44 -48t-63 -16q-47 0 -74.5 22t-27.5 58q0 28 17.5 52.5t55.5 50.5l6 4v56q-16 -33 -44 -52t-68 -19q-53 0 -87.5 37t-34.5 101v356h124v-341q0 -32 10 -46.5t32 -14.5q27 0 44 24t17 72v306h124v-484h-34q-29 -21 -45.5 -42t-16.5 -38q0 -11 6 -16.5
t15 -5.5q11 0 19.5 7.5t17.5 22.5z" />
    <glyph glyph-name="Wcircumflex" unicode="&#x174;" horiz-adv-x="773" 
d="M560 184l85 484h119l-137 -668h-154l-92 470l-89 -470h-145l-139 668h138l89 -483l89 483h142zM441 847l94 -120h-66l-76 50l-76 -50h-65l93 120h96z" />
    <glyph glyph-name="wcircumflex" unicode="&#x175;" horiz-adv-x="622" 
d="M449 190l64 294h103l-118 -484h-119l-67 305l-69 -305h-120l-116 484h133l57 -306l68 306h118zM371 668l88 -125h-63l-71 52l-71 -52h-63l89 125h91z" />
    <glyph glyph-name="Ycircumflex" unicode="&#x176;" horiz-adv-x="498" 
d="M375 668h120l-181 -364v-304h-130v302l-181 366h142l115 -247zM302 847l94 -120h-66l-76 50l-76 -50h-65l93 120h96z" />
    <glyph glyph-name="ycircumflex" unicode="&#x177;" horiz-adv-x="413" 
d="M301 484h108l-153 -515q-25 -84 -58 -117.5t-97 -33.5q-42 0 -65 5v92q24 -6 40 -6q31 0 48.5 20.5t27.5 72.5l1 6l-151 476h136l81 -313zM259 668l88 -125h-63l-71 52l-71 -52h-63l89 125h91z" />
    <glyph glyph-name="Ydieresis" unicode="&#x178;" horiz-adv-x="498" 
d="M375 668h120l-181 -364v-304h-130v302l-181 366h142l115 -247zM110.5 738q-19.5 18 -19.5 48t19.5 48t49.5 18t49 -18t19 -48t-19 -48t-49 -18t-49.5 18zM300 738q-19 18 -19 48t19 48t49 18t49 -18t19 -48t-19 -48t-49 -18t-49 18z" />
    <glyph glyph-name="Zacute" unicode="&#x179;" horiz-adv-x="423" 
d="M401 573l-242 -475h243v-98h-385v95l243 475h-229v98h370v-95zM220 727h-66l73 120h142v-9z" />
    <glyph glyph-name="zacute" unicode="&#x17a;" horiz-adv-x="349" 
d="M327 407l-170 -320h171v-87h-309v76l171 321h-166v87h303v-77zM180 543h-63l70 125h134v-11z" />
    <glyph glyph-name="Zdotaccent" unicode="&#x17b;" horiz-adv-x="423" 
d="M401 573l-242 -475h243v-98h-385v95l243 475h-229v98h370v-95zM156 738.5q-22 20.5 -22 52.5q0 34 22 55t56 21q35 0 56.5 -21t21.5 -55q0 -32 -22 -52.5t-56 -20.5t-56 20.5z" />
    <glyph glyph-name="zdotaccent" unicode="&#x17c;" horiz-adv-x="349" 
d="M327 407l-170 -320h171v-87h-309v76l171 321h-166v87h303v-77zM122 559.5q-21 19.5 -21 50.5q0 32 21 52t53 20q33 0 54 -20t21 -52q0 -31 -21 -50.5t-54 -19.5q-32 0 -53 19.5z" />
    <glyph glyph-name="Zcaron" unicode="&#x17d;" horiz-adv-x="423" 
d="M401 573l-242 -475h243v-98h-385v95l243 475h-229v98h370v-95zM212 798l76 49h66l-94 -120h-96l-93 120h65z" />
    <glyph glyph-name="zcaron" unicode="&#x17e;" horiz-adv-x="349" 
d="M327 407l-170 -320h171v-87h-309v76l171 321h-166v87h303v-77zM175 616l71 52h63l-88 -125h-91l-89 125h63z" />
    <glyph glyph-name="uni018F" unicode="&#x18f;" horiz-adv-x="521" 
d="M426 592q65 -88 65 -257q0 -171 -63.5 -259t-172.5 -88q-110 0 -169.5 87t-59.5 249q0 26 3 47h327q-4 113 -33 159t-78 46q-67 0 -106 -84l-93 44q29 68 80 106t120 38q115 0 180 -88zM321.5 132q25.5 40 32.5 139h-197q11 -179 98 -179q41 0 66.5 40z" />
    <glyph glyph-name="florin" unicode="&#x192;" 
d="M309 373h109v-77h-114l-13 -251q-4 -59 -13.5 -93.5t-26.5 -52.5q-36 -36 -115 -36q-40 0 -77 9l9 85q19 -3 43 -3q12 0 23 4t17 11q9 10 13.5 32.5t7.5 75.5l12 219h-105v77h109l7 132q2 51 11.5 81.5t27.5 51.5q19 22 45.5 32t66.5 10q38 0 77 -8l-10 -86q-21 3 -40 3
q-25 0 -39 -17q-9 -9 -13.5 -27t-5.5 -53z" />
    <glyph glyph-name="uni01C4" unicode="&#x1c4;" horiz-adv-x="937" 
d="M373.5 629q59.5 -39 93.5 -114.5t34 -180.5t-34 -180.5t-93.5 -114.5t-133.5 -39h-190v668h190q74 0 133.5 -39zM225 100q66 0 103 58.5t37 175.5t-37 175.5t-103 58.5h-45v-468h45zM915 573l-242 -475h243v-98h-385v95l243 475h-229v98h370v-95zM726 798l76 49h66
l-94 -120h-96l-93 120h65z" />
    <glyph glyph-name="uni01C5" unicode="&#x1c5;" horiz-adv-x="877" 
d="M373.5 629q59.5 -39 93.5 -114.5t34 -180.5t-34 -180.5t-93.5 -114.5t-133.5 -39h-190v668h190q74 0 133.5 -39zM225 100q66 0 103 58.5t37 175.5t-37 175.5t-103 58.5h-45v-468h45zM856 407l-170 -320h171v-87h-309v76l171 321h-166v87h303v-77zM704 616l71 52h63
l-88 -125h-91l-89 125h63z" />
    <glyph glyph-name="uni01C6" unicode="&#x1c6;" horiz-adv-x="794" 
d="M281 668h123v-668h-117v63q-36 -73 -107 -73q-65 0 -109.5 60t-44.5 191t44.5 192t109.5 61t101 -62v236zM282 242q0 160 -64 160q-63 0 -63 -160q0 -161 63 -161q64 0 64 161zM772 407l-170 -320h171v-87h-309v76l171 321h-166v87h303v-77zM620 616l71 52h63l-88 -125
h-91l-89 125h63z" />
    <glyph glyph-name="uni01C7" unicode="&#x1c7;" horiz-adv-x="688" 
d="M180 668v-568h200v-100h-330v668h130zM397 -110v106q24 -6 50 -6q61 0 61 76v602h130v-621q0 -82 -43.5 -123t-120.5 -41q-43 0 -77 7z" />
    <glyph glyph-name="uni01C8" unicode="&#x1c8;" horiz-adv-x="605" 
d="M180 668v-568h200v-100h-330v668h130zM358 -177v90q30 -4 38 -4q22 0 33 13t11 44v518h124v-533q0 -71 -33.5 -102t-99.5 -31q-48 0 -73 5zM448 559.5q-21 19.5 -21 50.5q0 32 21 52t53 20q33 0 54 -20t21 -52q0 -31 -21 -50.5t-54 -19.5q-32 0 -53 19.5z" />
    <glyph glyph-name="uni01C9" unicode="&#x1c9;" horiz-adv-x="439" 
d="M212 -3q-27 -7 -71 -7q-49 0 -75 24.5t-26 80.5v573h124v-554q0 -19 6 -26t18 -7q11 0 24 3v-87zM192 -177v90q30 -4 38 -4q22 0 33 13t11 44v518h124v-533q0 -71 -33.5 -102t-99.5 -31q-48 0 -73 5zM282 559.5q-21 19.5 -21 50.5q0 32 21 52t53 20q33 0 54 -20t21 -52
q0 -31 -21 -50.5t-54 -19.5q-32 0 -53 19.5z" />
    <glyph glyph-name="uni01CA" unicode="&#x1ca;" horiz-adv-x="822" 
d="M371 200v468h109v-668h-165l-156 467v-467h-109v668h164zM532 -110v106q24 -6 50 -6q61 0 61 76v602h130v-621q0 -82 -43.5 -123t-120.5 -41q-43 0 -77 7z" />
    <glyph glyph-name="uni01CB" unicode="&#x1cb;" horiz-adv-x="742" 
d="M371 200v468h109v-668h-165l-156 467v-467h-109v668h164zM495 -177v90q30 -4 38 -4q22 0 33 13t11 44v518h124v-533q0 -71 -33.5 -102t-99.5 -31q-48 0 -73 5zM585 559.5q-21 19.5 -21 50.5q0 32 21 52t53 20q33 0 54 -20t21 -52q0 -31 -21 -50.5t-54 -19.5
q-32 0 -53 19.5z" />
    <glyph glyph-name="uni01CC" unicode="&#x1cc;" horiz-adv-x="643" 
d="M357.5 457q34.5 -37 34.5 -101v-356h-124v341q0 32 -10 46.5t-32 14.5q-27 0 -44 -24t-17 -72v-306h-124v484h117v-61q16 33 44 52t68 19q53 0 87.5 -37zM396 -177v90q30 -4 38 -4q22 0 33 13t11 44v518h124v-533q0 -71 -33.5 -102t-99.5 -31q-48 0 -73 5zM486 559.5
q-21 19.5 -21 50.5q0 32 21 52t53 20q33 0 54 -20t21 -52q0 -31 -21 -50.5t-54 -19.5q-32 0 -53 19.5z" />
    <glyph glyph-name="uni01CD" unicode="&#x1cd;" horiz-adv-x="499" 
d="M495 0h-137l-33 142h-171l-34 -142h-115l174 668h141zM241 511l-65 -276h128zM250 798l76 49h66l-94 -120h-96l-93 120h65z" />
    <glyph glyph-name="uni01CE" unicode="&#x1ce;" horiz-adv-x="404" 
d="M256 0l-4 61q-17 -35 -43 -53t-69 -18q-55 0 -88.5 35.5t-33.5 101.5q0 67 34 101t95 52q46 12 93 20v37q0 72 -52 72q-23 0 -39 -16.5t-17 -56.5h-94q1 76 45.5 117t114.5 41q80 0 123 -43t43 -131v-181q0 -49 8 -139h-116zM226 95q14 23 14 62v75q-19 -4 -39 -11
q-28 -10 -41.5 -29.5t-13.5 -52.5q0 -67 41 -67q25 0 39 23zM200 616l71 52h63l-88 -125h-91l-89 125h63z" />
    <glyph glyph-name="uni01CF" unicode="&#x1cf;" horiz-adv-x="230" 
d="M248 847l-87 -120h-91l-88 120h65l68 -54l68 54h65zM180 0h-130v668h130v-668z" />
    <glyph glyph-name="uni01D0" unicode="&#x1d0;" horiz-adv-x="206" 
d="M229 668l-80 -125h-91l-81 125h62l64 -56l64 56h62zM165 0h-124v484h124v-484z" />
    <glyph glyph-name="uni01D1" unicode="&#x1d1;" horiz-adv-x="546" 
d="M146 26.5q-55 38.5 -86 116t-31 191.5t31 192t86 116t127 38t127 -38.5t86.5 -116t31.5 -191.5t-31.5 -191.5t-86.5 -116t-127 -38.5t-127 38.5zM352 150.5q29 58.5 29 183.5t-29 183.5t-79 58.5t-79 -58.5t-29 -183.5t29 -183.5t79 -58.5t79 58.5zM273 798l76 49h66
l-94 -120h-96l-93 120h65z" />
    <glyph glyph-name="uni01D2" unicode="&#x1d2;" horiz-adv-x="434" 
d="M77.5 55q-53.5 65 -53.5 187q0 81 25 138t68.5 85.5t99.5 28.5t99.5 -28.5t68.5 -85.5t25 -138q0 -122 -53.5 -187t-139.5 -65t-139.5 65zM264.5 119q16.5 38 16.5 123t-16.5 122.5t-47.5 37.5q-64 0 -64 -160q0 -161 64 -161q31 0 47.5 38zM216 616l71 52h63l-88 -125
h-91l-89 125h63z" />
    <glyph glyph-name="uni01D3" unicode="&#x1d3;" horiz-adv-x="495" 
d="M102.5 39q-55.5 51 -55.5 149v480h130v-472q0 -104 79 -104q40 0 60.5 24.5t20.5 79.5v472h111v-480q0 -98 -55.5 -149t-144.5 -51q-90 0 -145.5 51zM254 798l76 49h66l-94 -120h-96l-93 120h65z" />
    <glyph glyph-name="uni01D4" unicode="&#x1d4;" horiz-adv-x="431" 
d="M266 484h124v-484h-117v61q-16 -33 -44 -52t-68 -19q-53 0 -87.5 37t-34.5 101v356h124v-341q0 -32 10 -46.5t32 -14.5q27 0 44 24t17 72v306zM214 616l71 52h63l-88 -125h-91l-89 125h63z" />
    <glyph glyph-name="uni01D5" unicode="&#x1d5;" horiz-adv-x="495" 
d="M102.5 39q-55.5 51 -55.5 149v480h130v-472q0 -104 79 -104q40 0 60.5 24.5t20.5 79.5v472h111v-480q0 -98 -55.5 -149t-144.5 -51q-90 0 -145.5 51zM382 893h-258v87h258v-87zM109.5 734q-19.5 18 -19.5 48t19.5 48t49.5 18t49 -18t19 -48t-19 -48t-49 -18t-49.5 18z
M299 734q-19 18 -19 48t19 48t49 18t49 -18t19 -48t-19 -48t-49 -18t-49 18z" />
    <glyph glyph-name="uni01D6" unicode="&#x1d6;" horiz-adv-x="431" 
d="M266 484h124v-484h-117v61q-16 -33 -44 -52t-68 -19q-53 0 -87.5 37t-34.5 101v356h124v-341q0 -32 10 -46.5t32 -14.5q27 0 44 24t17 72v306zM337 716h-246v86h246v-86zM82 548q-18 18 -18 46t18 46t47 18t47 -18t18 -46t-18 -46t-47 -18t-47 18zM252 548q-18 18 -18 46
t18 46t46 18q29 0 47.5 -18t18.5 -46t-18.5 -46t-47.5 -18q-28 0 -46 18z" />
    <glyph glyph-name="uni01D7" unicode="&#x1d7;" horiz-adv-x="495" 
d="M102.5 39q-55.5 51 -55.5 149v480h130v-472q0 -104 79 -104q40 0 60.5 24.5t20.5 79.5v472h111v-480q0 -98 -55.5 -149t-144.5 -51q-90 0 -145.5 51zM272 875h-65l71 118h137v-10zM109.5 734q-19.5 18 -19.5 48t19.5 48t49.5 18t49 -18t19 -48t-19 -48t-49 -18t-49.5 18z
M299 734q-19 18 -19 48t19 48t49 18t49 -18t19 -48t-19 -48t-49 -18t-49 18z" />
    <glyph glyph-name="uni01D8" unicode="&#x1d8;" horiz-adv-x="431" 
d="M266 484h124v-484h-117v61q-16 -33 -44 -52t-68 -19q-53 0 -87.5 37t-34.5 101v356h124v-341q0 -32 10 -46.5t32 -14.5q27 0 44 24t17 72v306zM226 695h-63l70 125h134v-11zM82 548q-18 18 -18 46t18 46t47 18t47 -18t18 -46t-18 -46t-47 -18t-47 18zM252 548
q-18 18 -18 46t18 46t46 18q29 0 47.5 -18t18.5 -46t-18.5 -46t-47.5 -18q-28 0 -46 18z" />
    <glyph glyph-name="uni01D9" unicode="&#x1d9;" horiz-adv-x="495" 
d="M102.5 39q-55.5 51 -55.5 149v480h130v-472q0 -104 79 -104q40 0 60.5 24.5t20.5 79.5v472h111v-480q0 -98 -55.5 -149t-144.5 -51q-90 0 -145.5 51zM398 993l-99 -118h-91l-98 118h71l72 -49l72 49h73zM208 830q19 -18 19 -48t-19 -48t-49 -18t-49.5 18t-19.5 48
t19.5 48t49.5 18t49 -18zM397 830q19 -18 19 -48t-19 -48t-49 -18t-49 18t-19 48t19 48t49 18t49 -18z" />
    <glyph glyph-name="uni01DA" unicode="&#x1da;" horiz-adv-x="431" 
d="M266 484h124v-484h-117v61q-16 -33 -44 -52t-68 -19q-53 0 -87.5 37t-34.5 101v356h124v-341q0 -32 10 -46.5t32 -14.5q27 0 44 24t17 72v306zM352 819l-88 -125h-91l-88 125h62l71 -53l71 53h63zM176 640q18 -18 18 -46t-18 -46t-47 -18t-47 18t-18 46t18 46t47 18
t47 -18zM345.5 640q18.5 -18 18.5 -46t-18.5 -46t-47.5 -18q-28 0 -46 18t-18 46t18 46t46 18q29 0 47.5 -18z" />
    <glyph glyph-name="uni01DB" unicode="&#x1db;" horiz-adv-x="495" 
d="M102.5 39q-55.5 51 -55.5 149v480h130v-472q0 -104 79 -104q40 0 60.5 24.5t20.5 79.5v472h111v-480q0 -98 -55.5 -149t-144.5 -51q-90 0 -145.5 51zM230 993l72 -118h-65l-143 108v10h136zM109.5 734q-19.5 18 -19.5 48t19.5 48t49.5 18t49 -18t19 -48t-19 -48t-49 -18
t-49.5 18zM299 734q-19 18 -19 48t19 48t49 18t49 -18t19 -48t-19 -48t-49 -18t-49 18z" />
    <glyph glyph-name="uni01DC" unicode="&#x1dc;" horiz-adv-x="431" 
d="M266 484h124v-484h-117v61q-16 -33 -44 -52t-68 -19q-53 0 -87.5 37t-34.5 101v356h124v-341q0 -32 10 -46.5t32 -14.5q27 0 44 24t17 72v306zM195 820l71 -125h-64l-141 114v11h134zM83 548q-18 18 -18 46t18 46t47 18t47 -18t18 -46t-18 -46t-47 -18t-47 18zM252 548
q-18 18 -18 46t18 46t46 18q29 0 47.5 -18t18.5 -46t-18.5 -46t-47.5 -18q-28 0 -46 18z" />
    <glyph glyph-name="uni01F1" unicode="&#x1f1;" horiz-adv-x="937" 
d="M373.5 629q59.5 -39 93.5 -114.5t34 -180.5t-34 -180.5t-93.5 -114.5t-133.5 -39h-190v668h190q74 0 133.5 -39zM225 100q66 0 103 58.5t37 175.5t-37 175.5t-103 58.5h-45v-468h45zM915 573l-242 -475h243v-98h-385v95l243 475h-229v98h370v-95z" />
    <glyph glyph-name="uni01F2" unicode="&#x1f2;" horiz-adv-x="877" 
d="M373.5 629q59.5 -39 93.5 -114.5t34 -180.5t-34 -180.5t-93.5 -114.5t-133.5 -39h-190v668h190q74 0 133.5 -39zM225 100q66 0 103 58.5t37 175.5t-37 175.5t-103 58.5h-45v-468h45zM856 407l-170 -320h171v-87h-309v76l171 321h-166v87h303v-77z" />
    <glyph glyph-name="uni01F3" unicode="&#x1f3;" horiz-adv-x="794" 
d="M281 668h123v-668h-117v63q-36 -73 -107 -73q-65 0 -109.5 60t-44.5 191t44.5 192t109.5 61t101 -62v236zM282 242q0 160 -64 160q-63 0 -63 -160q0 -161 63 -161q64 0 64 161zM772 407l-170 -320h171v-87h-309v76l171 321h-166v87h303v-77z" />
    <glyph glyph-name="uni0218" unicode="&#x218;" horiz-adv-x="449" 
d="M103 185q16 -47 47 -71.5t64 -24.5q39 0 62.5 20t23.5 56q0 31 -22 55.5t-61 47.5l-59 37q-64 38 -95 85.5t-31 111.5q0 49 22.5 90t65 64.5t99.5 23.5q137 0 198 -139l-92 -44q-15 38 -40 60t-57 22q-31 0 -49.5 -18t-18.5 -49q0 -32 21 -55t65 -50l60 -36
q57 -36 89.5 -79t32.5 -113q0 -58 -27 -101t-74 -66.5t-105 -23.5q-66 0 -124.5 36.5t-83.5 115.5zM186 -171q35 2 52 13.5t17 24.5v2q-5 -1 -15 -1q-27 0 -43.5 11.5t-16.5 32.5q0 24 17 37.5t45 13.5q32 0 50.5 -19t18.5 -48q0 -49 -32.5 -76.5t-92.5 -29.5v39z" />
    <glyph glyph-name="uni0219" unicode="&#x219;" horiz-adv-x="367" 
d="M84 145q18 -32 41.5 -48.5t51.5 -16.5q26 0 41.5 11.5t15.5 31.5t-15 34t-46 30l-45 25q-48 26 -73 60t-25 84q0 60 43 98.5t111 38.5q50 0 88.5 -22t67.5 -70l-71 -51q-15 24 -35 39t-44 15q-21 0 -33.5 -10.5t-12.5 -29.5q0 -16 12 -28.5t38 -27.5l45 -24
q51 -30 80.5 -62t29.5 -86q0 -67 -44.5 -106.5t-120.5 -39.5q-118 0 -174 108zM135 -173q33 2 50 15.5t17 26.5v1q-5 -1 -15 -1q-25 0 -41 12.5t-16 33.5q0 23 16 35.5t43 12.5q31 0 49 -19t18 -48q0 -51 -31.5 -77.5t-89.5 -28.5v37z" />
    <glyph glyph-name="uni021A" unicode="&#x21a;" horiz-adv-x="434" 
d="M420 668v-100h-137v-568h-131v568h-138v100h406zM161 -171q35 2 52 13.5t17 24.5v2q-5 -1 -15 -1q-27 0 -43.5 11.5t-16.5 32.5q0 24 17 37.5t45 13.5q32 0 50.5 -19t18.5 -48q0 -49 -32.5 -76.5t-92.5 -29.5v39z" />
    <glyph glyph-name="uni021B" unicode="&#x21b;" horiz-adv-x="306" 
d="M296 397h-89v-268q0 -26 9.5 -37t28.5 -11q23 0 44 7v-87q-33 -11 -92 -11q-51 0 -82 28t-31 83v296h-74v87h74v99l123 43v-142h89v-87zM138 -173q33 2 50 15.5t17 26.5v1q-5 -1 -15 -1q-25 0 -41 12.5t-16 33.5q0 23 16 35.5t43 12.5q31 0 49 -19t18 -48
q0 -51 -31.5 -77.5t-89.5 -28.5v37z" />
    <glyph glyph-name="uni0232" unicode="&#x232;" horiz-adv-x="498" 
d="M375 668h120l-181 -364v-304h-130v302l-181 366h142l115 -247zM387 735h-266v90h266v-90z" />
    <glyph glyph-name="uni0233" unicode="&#x233;" horiz-adv-x="413" 
d="M301 484h108l-153 -515q-25 -84 -58 -117.5t-97 -33.5q-42 0 -65 5v92q24 -6 40 -6q31 0 48.5 20.5t27.5 72.5l1 6l-151 476h136l81 -313zM337 556h-246v87h246v-87z" />
    <glyph glyph-name="uni0237" unicode="&#x237;" horiz-adv-x="212" 
d="M-35 -177v90q30 -4 38 -4q22 0 33 13t11 44v518h124v-533q0 -71 -33.5 -102t-99.5 -31q-48 0 -73 5z" />
    <glyph glyph-name="uni0259" unicode="&#x259;" horiz-adv-x="419" 
d="M339.5 430.5q54.5 -63.5 54.5 -188.5t-52 -188.5t-138 -63.5q-83 0 -131.5 62t-48.5 182q0 12 2 34h240q-3 73 -24 104t-58 31q-50 0 -81 -64l-75 47q54 108 164 108q93 0 147.5 -63.5zM265 194h-117q3 -62 16 -89t40 -27q53 0 61 116z" />
    <glyph glyph-name="uni02BB" unicode="&#x2bb;" horiz-adv-x="191" 
d="M147.5 540.5q19.5 -18.5 19.5 -47.5q0 -28 -19.5 -46.5t-49.5 -18.5q-36 0 -56.5 26t-20.5 66q0 68 36 113.5t101 46.5v-47q-31 -1 -51.5 -23t-24.5 -52q5 1 16 1q30 0 49.5 -18.5z" />
    <glyph glyph-name="uni02BC" unicode="&#x2bc;" horiz-adv-x="191" 
d="M151.5 654q20.5 -26 20.5 -66q0 -68 -36 -113.5t-101 -46.5v48q31 1 51.5 23t24.5 52q-5 -1 -16 -1q-30 0 -49.5 18t-19.5 48q0 28 19.5 46t49.5 18q36 0 56.5 -26z" />
    <glyph glyph-name="circumflex" unicode="&#x2c6;" horiz-adv-x="362" 
d="M226 668l89 -125h-63l-71 52l-71 -52h-63l88 125h91z" />
    <glyph glyph-name="caron" unicode="&#x2c7;" horiz-adv-x="362" 
d="M180 616l71 52h63l-88 -125h-91l-89 125h63z" />
    <glyph glyph-name="breve" unicode="&#x2d8;" horiz-adv-x="362" 
d="M90 570.5q-33 33.5 -37 97.5h60q14 -54 67 -54t67 54h60q-4 -64 -37 -97.5t-90 -33.5t-90 33.5z" />
    <glyph glyph-name="dotaccent" unicode="&#x2d9;" horiz-adv-x="362" 
d="M127 559.5q-21 19.5 -21 50.5q0 32 21 52t53 20q33 0 54 -20t21 -52q0 -31 -21 -50.5t-54 -19.5q-32 0 -53 19.5z" />
    <glyph glyph-name="ring" unicode="&#x2da;" horiz-adv-x="362" 
d="M98 570q-32 29 -32 73q0 43 32 72.5t82 29.5t82.5 -29.5t32.5 -72.5q0 -44 -32.5 -73t-82.5 -29t-82 29zM208 615q11 11 11 28t-10.5 28t-28.5 11q-17 0 -27.5 -11.5t-10.5 -27.5q0 -17 10.5 -28t27.5 -11t28 11z" />
    <glyph glyph-name="ogonek" unicode="&#x2db;" horiz-adv-x="362" 
d="M94.5 -158q-28.5 24 -28.5 62q0 25 12.5 46.5t39.5 46.5l18 17l93 4q-63 -53 -63 -91q0 -14 7 -21.5t19 -7.5t21.5 7t21.5 23l50 -46q-21 -32 -47.5 -48t-67.5 -16q-47 0 -75.5 24z" />
    <glyph glyph-name="tilde" unicode="&#x2dc;" horiz-adv-x="362" 
d="M193.5 552.5q-15.5 7.5 -30.5 19.5q-8 5 -16 9.5t-14 4.5q-25 0 -29 -36h-61q3 66 29.5 91.5t60.5 25.5q20 0 34.5 -6.5t30.5 -18.5q20 -16 31 -16q23 0 28 36h61q-3 -65 -29 -91t-61 -26q-19 0 -34.5 7.5z" />
    <glyph glyph-name="hungarumlaut" unicode="&#x2dd;" horiz-adv-x="362" 
d="M99 543h-58l42 125h117v-11zM245 543h-61l61 125h115v-11z" />
    <glyph glyph-name="gravecomb" unicode="&#x300;" horiz-adv-x="0" 
d="M-298 668l70 -125h-64l-140 114v11h134z" />
    <glyph glyph-name="acutecomb" unicode="&#x301;" horiz-adv-x="0" 
d="M-369 543h-63l70 125h134v-11z" />
    <glyph glyph-name="uni0302" unicode="&#x302;" horiz-adv-x="0" 
d="M-285 668l88 -125h-63l-71 52l-71 -52h-63l89 125h91z" />
    <glyph glyph-name="tildecomb" unicode="&#x303;" horiz-adv-x="0" 
d="M-365.5 552.5q-15.5 7.5 -30.5 19.5q-8 5 -16 9.5t-14 4.5q-25 0 -29 -36h-61q3 66 29.5 91.5t60.5 25.5q20 0 34.5 -6.5t30.5 -18.5q20 -16 31 -16q23 0 28 36h61q-3 -65 -29 -91t-61 -26q-19 0 -34.5 7.5z" />
    <glyph glyph-name="uni0304" unicode="&#x304;" horiz-adv-x="0" 
d="M-221 556h-246v87h246v-87z" />
    <glyph glyph-name="uni0306" unicode="&#x306;" horiz-adv-x="0" 
d="M-421 570.5q-33 33.5 -37 97.5h60q14 -54 67 -54t67 54h60q-4 -64 -37 -97.5t-90 -33.5t-90 33.5z" />
    <glyph glyph-name="uni0307" unicode="&#x307;" horiz-adv-x="0" 
d="M-153 559.5q-21 19.5 -21 50.5q0 32 21 52t53 20q33 0 54 -20t21 -52q0 -31 -21 -50.5t-54 -19.5q-32 0 -53 19.5z" />
    <glyph glyph-name="uni0308" unicode="&#x308;" horiz-adv-x="0" 
d="M-516 555.5q-18 17.5 -18 45.5q0 29 18 46.5t47 17.5t47 -17.5t18 -46.5q0 -28 -18 -45.5t-47 -17.5t-47 17.5zM-347 555.5q-18 17.5 -18 45.5q0 29 18 46.5t46 17.5q29 0 47.5 -17.5t18.5 -46.5q0 -28 -18.5 -45.5t-47.5 -17.5q-28 0 -46 17.5z" />
    <glyph glyph-name="uni030A" unicode="&#x30a;" horiz-adv-x="0" 
d="M-418 570q-32 29 -32 73q0 43 32 72.5t82 29.5t82.5 -29.5t32.5 -72.5q0 -44 -32.5 -73t-82.5 -29t-82 29zM-307.5 615q11.5 11 11.5 28t-11 28t-29 11q-17 0 -27.5 -11.5t-10.5 -27.5q0 -17 10.5 -28t27.5 -11t28.5 11z" />
    <glyph glyph-name="uni030B" unicode="&#x30b;" horiz-adv-x="0" 
d="M-448 543h-58l42 125h117v-11zM-302 543h-61l61 125h115v-11z" />
    <glyph glyph-name="uni030C" unicode="&#x30c;" horiz-adv-x="0" 
d="M-329 616l71 52h63l-88 -125h-91l-89 125h63z" />
    <glyph glyph-name="uni0312" unicode="&#x312;" horiz-adv-x="0" 
d="M-245 664q-33 -1 -50 -14.5t-17 -26.5v-2q5 1 15 1q25 0 41 -12.5t16 -33.5q0 -22 -16 -35t-43 -13q-30 0 -48.5 19.5t-18.5 47.5q0 51 31.5 77.5t89.5 28.5v-37z" />
    <glyph glyph-name="uni0326" unicode="&#x326;" horiz-adv-x="0" 
d="M-353 -173q33 2 50 15.5t17 26.5v1q-5 -1 -15 -1q-25 0 -41 12.5t-16 33.5q0 23 16 35.5t43 12.5q31 0 49 -19t18 -48q0 -51 -31.5 -77.5t-89.5 -28.5v37z" />
    <glyph glyph-name="uni0327" unicode="&#x327;" horiz-adv-x="0" 
d="M-152 -58q22 -18 22 -48q0 -36 -28.5 -56t-73.5 -20q-46 0 -75 19l19 48q19 -13 40 -13q12 0 20.5 6.5t8.5 18.5q0 11 -6.5 17.5t-18.5 6.5t-23 -9l-23 14l55 98h51l-39 -65q4 1 12 1q37 0 59 -18z" />
    <glyph glyph-name="uni0328" unicode="&#x328;" horiz-adv-x="0" 
d="M-444.5 -158q-28.5 24 -28.5 62q0 25 12.5 46.5t39.5 46.5l18 17l93 4q-63 -53 -63 -91q0 -14 7 -21.5t19 -7.5t21.5 7t21.5 23l50 -46q-21 -32 -47.5 -48t-67.5 -16q-47 0 -75.5 24z" />
    <glyph glyph-name="uni0394" unicode="&#x394;" horiz-adv-x="503" 
d="M181 668h141l167 -581v-87h-475v87zM355 97l-111 425l-118 -425h229z" />
    <glyph glyph-name="uni03A9" unicode="&#x3a9;" horiz-adv-x="549" 
d="M517 94v-94h-208v91q33 39 51.5 105.5t18.5 155.5q0 114 -27.5 169t-77.5 55t-77.5 -55t-27.5 -169q0 -88 19 -155t51 -106v-91h-205v94h105q-49 50 -77 125.5t-28 159.5q0 95 30.5 162.5t84.5 103t125 35.5t125 -35.5t84.5 -103t30.5 -162.5q0 -82 -28.5 -158
t-75.5 -127h107z" />
    <glyph glyph-name="uni03BC" unicode="&#x3bc;" horiz-adv-x="453" 
d="M439 94v-94q-20 -8 -51 -8q-79 0 -94 69q-25 -69 -87 -69q-22 0 -42 13v-184h-124v663h124v-332q0 -36 11 -53.5t31 -17.5q27 0 44 30t17 91v282h124v-328q0 -39 8 -51.5t24 -12.5q7 0 15 2z" />
    <glyph glyph-name="pi" unicode="&#x3c0;" horiz-adv-x="452" 
d="M414.5 88.5q8.5 1.5 14.5 3.5v-85q-9 -4 -27.5 -8t-37.5 -4q-43 0 -66 12t-33 41.5t-10 85.5v263h-66l-29 -397h-114l32 397h-58v87h407v-87h-61v-252q0 -34 6.5 -46t26.5 -12q7 0 15.5 1.5z" />
    <glyph glyph-name="uni0E3F" unicode="&#xe3f;" 
d="M400 60.5q-45 -49.5 -116 -58.5v-90h-85v88h-131v668h131v81h85v-84q69 -11 105.5 -54.5t36.5 -111.5q0 -51 -23.5 -87t-65.5 -54q50 -18 79 -61t29 -105q0 -82 -45 -131.5zM193 573v-185h35q36 0 55 23t19 67q0 49 -16 72t-51 23h-42zM234 95q82 0 82 103q0 50 -20.5 75
t-59.5 25h-43v-203h41z" />
    <glyph glyph-name="Wgrave" unicode="&#x1e80;" horiz-adv-x="773" 
d="M560 184l85 484h119l-137 -668h-154l-92 470l-89 -470h-145l-139 668h138l89 -483l89 483h142zM379 847l73 -120h-66l-149 111v9h142z" />
    <glyph glyph-name="wgrave" unicode="&#x1e81;" horiz-adv-x="622" 
d="M449 190l64 294h103l-118 -484h-119l-67 305l-69 -305h-120l-116 484h133l57 -306l68 306h118zM312 668l70 -125h-64l-140 114v11h134z" />
    <glyph glyph-name="Wacute" unicode="&#x1e82;" horiz-adv-x="773" 
d="M560 184l85 484h119l-137 -668h-154l-92 470l-89 -470h-145l-139 668h138l89 -483l89 483h142zM402 727h-66l73 120h142v-9z" />
    <glyph glyph-name="wacute" unicode="&#x1e83;" horiz-adv-x="622" 
d="M449 190l64 294h103l-118 -484h-119l-67 305l-69 -305h-120l-116 484h133l57 -306l68 306h118zM330 543h-63l70 125h134v-11z" />
    <glyph glyph-name="Wdieresis" unicode="&#x1e84;" horiz-adv-x="773" 
d="M560 184l85 484h119l-137 -668h-154l-92 470l-89 -470h-145l-139 668h138l89 -483l89 483h142zM249.5 738q-19.5 18 -19.5 48t19.5 48t49.5 18t49 -18t19 -48t-19 -48t-49 -18t-49.5 18zM439 738q-19 18 -19 48t19 48t49 18t49 -18t19 -48t-19 -48t-49 -18t-49 18z" />
    <glyph glyph-name="wdieresis" unicode="&#x1e85;" horiz-adv-x="622" 
d="M449 190l64 294h103l-118 -484h-119l-67 305l-69 -305h-120l-116 484h133l57 -306l68 306h118zM193 555.5q-18 17.5 -18 45.5q0 29 18 46.5t47 17.5t47 -17.5t18 -46.5q0 -28 -18 -45.5t-47 -17.5t-47 17.5zM362 555.5q-18 17.5 -18 45.5q0 29 18 46.5t46 17.5
q29 0 47.5 -17.5t18.5 -46.5q0 -28 -18.5 -45.5t-47.5 -17.5q-28 0 -46 17.5z" />
    <glyph glyph-name="uni1E9E" unicode="&#x1e9e;" horiz-adv-x="513" 
d="M385 360q51 -37 79 -78t28 -103q0 -61 -24 -104t-66 -65t-93 -22q-64 0 -101 31l34 87q27 -17 53 -17q27 0 46 20.5t19 60.5q0 35 -17.5 60t-54.5 50l-47 33v50l93 193q-36 22 -71 22q-54 0 -70.5 -43t-16.5 -105v-430h-130v439q0 105 45 173t172 68q116 0 213 -80
l-112 -224z" />
    <glyph glyph-name="uni1EBC" unicode="&#x1ebc;" horiz-adv-x="422" 
d="M180 295v-195h211v-100h-341v668h336v-100h-206v-175h191v-98h-191zM240 729.5q-14 6.5 -24 13t-13 8.5q-23 15 -33 15q-28 0 -32 -38h-65q3 69 31.5 95.5t64.5 26.5q22 0 37.5 -6.5t32.5 -18.5q12 -9 20 -13.5t15 -4.5q26 0 31 38h65q-3 -67 -31 -94.5t-66 -27.5
q-19 0 -33 6.5z" />
    <glyph glyph-name="uni1EBD" unicode="&#x1ebd;" horiz-adv-x="419" 
d="M393 216h-240q3 -73 24 -104t58 -31q50 0 81 64l75 -47q-54 -108 -164 -108q-93 0 -147.5 63.5t-54.5 188.5t52 188.5t138 63.5q83 0 131.5 -62t48.5 -182q0 -12 -2 -34zM154 290h117q-3 62 -16 89t-40 27q-53 0 -61 -116zM229.5 552.5q-15.5 7.5 -30.5 19.5
q-8 5 -16 9.5t-14 4.5q-25 0 -29 -36h-61q3 66 29.5 91.5t60.5 25.5q20 0 34.5 -6.5t30.5 -18.5q20 -16 31 -16q23 0 28 36h61q-3 -65 -29 -91t-61 -26q-19 0 -34.5 7.5z" />
    <glyph glyph-name="Ygrave" unicode="&#x1ef2;" horiz-adv-x="498" 
d="M375 668h120l-181 -364v-304h-130v302l-181 366h142l115 -247zM239 847l73 -120h-66l-149 111v9h142z" />
    <glyph glyph-name="ygrave" unicode="&#x1ef3;" horiz-adv-x="413" 
d="M301 484h108l-153 -515q-25 -84 -58 -117.5t-97 -33.5q-42 0 -65 5v92q24 -6 40 -6q31 0 48.5 20.5t27.5 72.5l1 6l-151 476h136l81 -313zM201 668l70 -125h-64l-140 114v11h134z" />
    <glyph glyph-name="uni1EF8" unicode="&#x1ef8;" horiz-adv-x="498" 
d="M375 668h120l-181 -364v-304h-130v302l-181 366h142l115 -247zM273 729.5q-14 6.5 -24 13t-13 8.5q-23 15 -33 15q-28 0 -32 -38h-65q3 69 31.5 95.5t64.5 26.5q22 0 37.5 -6.5t32.5 -18.5q12 -9 20 -13.5t15 -4.5q26 0 31 38h65q-3 -67 -31 -94.5t-66 -27.5
q-19 0 -33 6.5z" />
    <glyph glyph-name="uni1EF9" unicode="&#x1ef9;" horiz-adv-x="413" 
d="M301 484h108l-153 -515q-25 -84 -58 -117.5t-97 -33.5q-42 0 -65 5v92q24 -6 40 -6q31 0 48.5 20.5t27.5 72.5l1 6l-151 476h136l81 -313zM226.5 552.5q-15.5 7.5 -30.5 19.5q-8 5 -16 9.5t-14 4.5q-25 0 -29 -36h-61q3 66 29.5 91.5t60.5 25.5q20 0 34.5 -6.5
t30.5 -18.5q20 -16 31 -16q23 0 28 36h61q-3 -65 -29 -91t-61 -26q-19 0 -34.5 7.5z" />
    <glyph glyph-name="uni2007" unicode="&#x2007;" 
 />
    <glyph glyph-name="uni2008" unicode="&#x2008;" horiz-adv-x="202" 
 />
    <glyph glyph-name="uni2009" unicode="&#x2009;" horiz-adv-x="125" 
 />
    <glyph glyph-name="uni200B" unicode="&#x200b;" horiz-adv-x="0" 
 />
    <glyph glyph-name="uni2010" unicode="&#x2010;" horiz-adv-x="292" 
d="M253 234h-214v91h214v-91z" />
    <glyph glyph-name="uni2011" unicode="&#x2011;" horiz-adv-x="292" 
d="M253 234h-214v91h214v-91z" />
    <glyph glyph-name="figuredash" unicode="&#x2012;" 
d="M462 238h-425v83h425v-83z" />
    <glyph glyph-name="endash" unicode="&#x2013;" horiz-adv-x="325" 
d="M288 238h-250v83h250v-83z" />
    <glyph glyph-name="emdash" unicode="&#x2014;" horiz-adv-x="641" 
d="M604 238h-566v83h566v-83z" />
    <glyph glyph-name="quoteleft" unicode="&#x2018;" horiz-adv-x="191" 
d="M147.5 540.5q19.5 -18.5 19.5 -47.5q0 -28 -19.5 -46.5t-49.5 -18.5q-36 0 -56.5 26t-20.5 66q0 68 36 113.5t101 46.5v-47q-31 -1 -51.5 -23t-24.5 -52q5 1 16 1q30 0 49.5 -18.5z" />
    <glyph glyph-name="quoteright" unicode="&#x2019;" horiz-adv-x="191" 
d="M151.5 654q20.5 -26 20.5 -66q0 -68 -36 -113.5t-101 -46.5v48q31 1 51.5 23t24.5 52q-5 -1 -16 -1q-30 0 -49.5 18t-19.5 48q0 28 19.5 46t49.5 18q36 0 56.5 -26z" />
    <glyph glyph-name="quotesinglbase" unicode="&#x201a;" horiz-adv-x="191" 
d="M148.5 93q20.5 -26 20.5 -66q0 -68 -36 -113.5t-101 -46.5v47q31 1 51.5 23.5t24.5 52.5q-5 -1 -16 -1q-30 0 -49.5 18t-19.5 47t19.5 47t49.5 18q36 0 56.5 -26z" />
    <glyph glyph-name="quotedblleft" unicode="&#x201c;" horiz-adv-x="368" 
d="M147.5 540.5q19.5 -18.5 19.5 -47.5q0 -28 -19.5 -46.5t-49.5 -18.5q-36 0 -56.5 26t-20.5 66q0 68 36 113.5t101 46.5v-47q-31 -1 -51.5 -23t-24.5 -52q5 1 16 1q30 0 49.5 -18.5zM325 540.5q19 -18.5 19 -47.5t-19 -47t-50 -18q-36 0 -56.5 26t-20.5 66
q0 68 36.5 113.5t101.5 46.5v-47q-32 -1 -52 -23t-24 -52q5 1 15 1q31 0 50 -18.5z" />
    <glyph glyph-name="quotedblright" unicode="&#x201d;" horiz-adv-x="368" 
d="M151.5 654q20.5 -26 20.5 -66q0 -68 -36 -113.5t-101 -46.5v48q31 1 51.5 23t24.5 52q-5 -1 -16 -1q-30 0 -49.5 18t-19.5 48q0 28 19.5 46t49.5 18q36 0 56.5 -26zM329.5 654q20.5 -26 20.5 -66q0 -68 -36 -113.5t-101 -46.5v48q31 1 51.5 23t24.5 52q-5 -1 -16 -1
q-30 0 -49.5 18t-19.5 48q0 28 19.5 46t49.5 18q36 0 56.5 -26z" />
    <glyph glyph-name="quotedblbase" unicode="&#x201e;" horiz-adv-x="369" 
d="M148.5 93q20.5 -26 20.5 -66q0 -68 -36 -113.5t-101 -46.5v47q31 1 51.5 23.5t24.5 52.5q-5 -1 -16 -1q-30 0 -49.5 18t-19.5 47t19.5 47t49.5 18q36 0 56.5 -26zM326.5 93q20.5 -26 20.5 -66q0 -68 -36.5 -113.5t-100.5 -46.5v47q31 1 51 23t24 53q-5 -1 -15 -1
q-30 0 -49.5 18t-19.5 47t19.5 47t49.5 18q36 0 56.5 -26z" />
    <glyph glyph-name="dagger" unicode="&#x2020;" horiz-adv-x="364" 
d="M233 463h114v-86h-114v-477h-102v477h-114v86h114v205h102v-205z" />
    <glyph glyph-name="daggerdbl" unicode="&#x2021;" horiz-adv-x="377" 
d="M354 463v-86h-114v-176h114v-87h-114v-214h-103v214h-114v87h114v176h-114v86h114v205h103v-205h114z" />
    <glyph glyph-name="bullet" unicode="&#x2022;" horiz-adv-x="382" 
d="M299.5 388.5q42.5 -43.5 42.5 -109.5q0 -67 -43 -110.5t-108 -43.5q-66 0 -109 43.5t-43 109.5q0 67 43.5 110.5t110.5 43.5q64 0 106.5 -43.5z" />
    <glyph glyph-name="ellipsis" unicode="&#x2026;" horiz-adv-x="600" 
d="M44.5 11q-22.5 21 -22.5 53q0 34 22 55t57 21t57 -21t22 -55q0 -32 -22 -53t-57 -21q-34 0 -56.5 21zM243.5 11q-22.5 21 -22.5 53q0 34 22 55t57 21t57 -21t22 -55q0 -32 -22 -53t-57 -21q-34 0 -56.5 21zM442.5 11q-22.5 21 -22.5 53q0 34 22 55t57 21t57 -21t22 -55
q0 -32 -22 -53t-57 -21q-34 0 -56.5 21z" />
    <glyph glyph-name="perthousand" unicode="&#x2030;" horiz-adv-x="1016" 
d="M132 0l340 668h92l-341 -668h-91zM59 355.5q-39 49.5 -39 137.5t38.5 137.5t102.5 49.5t103 -49.5t39 -137.5t-39 -137.5t-103 -49.5q-63 0 -102 49.5zM195.5 402q11.5 26 11.5 91t-11.5 91.5t-34.5 26.5t-34.5 -26.5t-11.5 -91.5t11.5 -91t34.5 -26t34.5 26zM432.5 37.5
q-38.5 49.5 -38.5 137.5t38.5 137.5t102.5 49.5t102.5 -49.5t38.5 -137.5t-38.5 -137.5t-102.5 -49.5t-102.5 49.5zM569.5 84q11.5 26 11.5 91t-11.5 91.5t-34.5 26.5t-34.5 -26.5t-11.5 -91.5t11.5 -91t34.5 -26t34.5 26zM753 37.5q-39 49.5 -39 137.5t38.5 137.5
t102.5 49.5t103 -49.5t39 -137.5t-39 -137.5t-103 -49.5q-63 0 -102 49.5zM889.5 84q11.5 26 11.5 91t-11.5 91.5t-34.5 26.5t-34.5 -26.5t-11.5 -91.5t11.5 -91t34.5 -26t34.5 26z" />
    <glyph glyph-name="minute" unicode="&#x2032;" horiz-adv-x="172" 
d="M94 428h-68l26 240h111v-11z" />
    <glyph glyph-name="second" unicode="&#x2033;" horiz-adv-x="331" 
d="M92 428h-67l26 240h109v-11zM254 428h-67l26 240h108v-11z" />
    <glyph glyph-name="uni2034" unicode="&#x2034;" horiz-adv-x="493" 
d="M93 428h-67l26 240h109v-11zM254 428h-67l26 240h109v-11zM416 428h-67l26 240h108v-11z" />
    <glyph glyph-name="guilsinglleft" unicode="&#x2039;" horiz-adv-x="236" 
d="M138 255l72 -195h-91l-101 195l101 189h91z" />
    <glyph glyph-name="guilsinglright" unicode="&#x203a;" horiz-adv-x="235" 
d="M116 60h-91l71 195l-71 189h91l101 -189z" />
    <glyph glyph-name="fraction" unicode="&#x2044;" horiz-adv-x="131" 
d="M-61 0h-91l340 668h92z" />
    <glyph glyph-name="uni2060" unicode="&#x2060;" horiz-adv-x="151" 
 />
    <glyph glyph-name="uni2070" unicode="&#x2070;" horiz-adv-x="327" 
d="M65.5 326q-38.5 52 -38.5 149q0 96 38.5 148t97.5 52q60 0 98.5 -51.5t38.5 -148.5t-38.5 -149t-98.5 -52q-59 0 -97.5 52zM194 374q11 31 11 101q0 131 -42 131q-41 0 -41 -131q0 -132 41 -132q20 0 31 31z" />
    <glyph glyph-name="uni2074" unicode="&#x2074;" horiz-adv-x="310" 
d="M249 414h41v-65h-41v-68h-88v68h-144v63l134 256h98v-254zM167 414v179l-93 -179h93z" />
    <glyph glyph-name="uni2075" unicode="&#x2075;" horiz-adv-x="292" 
d="M237.5 499.5q29.5 -34.5 29.5 -91.5q0 -64 -37.5 -99t-93.5 -35q-48 0 -79 27.5t-39 76.5l67 13q3 -22 15.5 -35t33.5 -13q41 0 41 62q0 29 -12 44.5t-30 15.5q-14 0 -24.5 -8t-15.5 -20l-67 9l24 222h199v-69h-136l-12 -92q22 27 61 27q46 0 75.5 -34.5z" />
    <glyph glyph-name="uni2076" unicode="&#x2076;" horiz-adv-x="308" 
d="M253 500.5q28 -32.5 28 -90.5q0 -63 -35 -99t-88 -36q-56 0 -94 43.5t-38 148.5q0 96 36 152.5t101 56.5q44 0 73.5 -25.5t38.5 -72.5l-66 -14q-5 20 -15.5 31.5t-24.5 11.5q-24 0 -37 -24.5t-15 -82.5q21 33 62 33q46 0 74 -32.5zM182.5 362q9.5 18 9.5 46q0 60 -37 60
q-18 0 -27.5 -15.5t-9.5 -44.5q0 -28 9 -46t28 -18q18 0 27.5 18z" />
    <glyph glyph-name="uni2077" unicode="&#x2077;" horiz-adv-x="264" 
d="M15 668h235v-72q-52 -60 -72.5 -139t-22.5 -176h-94q0 94 33 178t91 140h-170v69z" />
    <glyph glyph-name="uni2078" unicode="&#x2078;" horiz-adv-x="313" 
d="M270.5 442.5q17.5 -23.5 17.5 -59.5q0 -49 -38.5 -79t-91.5 -30q-58 0 -95.5 28t-37.5 77q0 58 68 93q-26 17 -41.5 39t-15.5 56q0 44 33 76t87 32q50 0 85 -29t35 -74q0 -30 -14.5 -50t-40.5 -35q32 -21 49.5 -44.5zM130.5 604.5q-11.5 -10.5 -11.5 -28.5t11.5 -31
t33.5 -25l6 -3q31 21 31 54q0 22 -13 33t-30 11q-16 0 -27.5 -10.5zM186.5 349.5q12.5 11.5 12.5 31.5q0 19 -12.5 32t-41.5 30q-40 -24 -40 -62q0 -20 13.5 -31.5t35.5 -11.5q20 0 32.5 11.5z" />
    <glyph glyph-name="uni2079" unicode="&#x2079;" horiz-adv-x="293" 
d="M233.5 636q35.5 -39 35.5 -109q0 -77 -35 -138t-95 -117l-77 24q38 36 65 69.5t42 70.5q-20 -17 -49 -17q-42 0 -72 32t-30 90q0 62 34.5 98t89.5 36q56 0 91.5 -39zM173.5 501q9.5 17 9.5 43q0 28 -9.5 45t-27.5 17t-28 -16.5t-10 -45.5q0 -26 9.5 -43t28.5 -17
q18 0 27.5 17z" />
    <glyph glyph-name="uni207A" unicode="&#x207a;" horiz-adv-x="295" 
d="M184 496h91v-65h-91v-96h-72v96h-91v65h91v95h72v-95z" />
    <glyph glyph-name="uni207B" unicode="&#x207b;" horiz-adv-x="325" 
d="M290 431h-254v65h254v-65z" />
    <glyph glyph-name="uni207C" unicode="&#x207c;" horiz-adv-x="327" 
d="M290 486h-254v65h254v-65zM290 372h-254v65h254v-65z" />
    <glyph glyph-name="uni207D" unicode="&#x207d;" horiz-adv-x="181" 
d="M166 228l-51 -23q-41 54 -65 117.5t-24 148.5q0 151 89 264l51 -22q-63 -113 -63 -242q0 -132 63 -243z" />
    <glyph glyph-name="uni207E" unicode="&#x207e;" horiz-adv-x="181" 
d="M15 713l51 22q89 -113 89 -264q0 -85 -24 -148.5t-65 -117.5l-51 23q63 111 63 243q0 129 -63 242z" />
    <glyph glyph-name="uni2080" unicode="&#x2080;" horiz-adv-x="327" 
d="M65.5 -105q-38.5 52 -38.5 149q0 96 38.5 148t97.5 52q60 0 98.5 -51.5t38.5 -148.5t-38.5 -149t-98.5 -52q-59 0 -97.5 52zM194 -57q11 31 11 101q0 131 -42 131q-41 0 -41 -131q0 -132 41 -132q20 0 31 31z" />
    <glyph glyph-name="uni2081" unicode="&#x2081;" horiz-adv-x="256" 
d="M180 -81h62v-69h-215v69h63v200q-22 -9 -63 -11v64q77 3 93 65h60v-318z" />
    <glyph glyph-name="uni2082" unicode="&#x2082;" horiz-adv-x="294" 
d="M267 -81v-69h-240v67q86 77 116.5 125t30.5 90q0 20 -9 31.5t-25 11.5q-18 0 -28.5 -14.5t-9.5 -45.5h-77q0 129 124 129q49 0 83 -29.5t34 -77.5q0 -54 -35 -103.5t-115 -114.5h151z" />
    <glyph glyph-name="uni2083" unicode="&#x2083;" horiz-adv-x="301" 
d="M254.5 18.5q20.5 -26.5 20.5 -61.5q0 -50 -37.5 -82t-97.5 -32q-54 0 -84.5 28t-35.5 83l67 13q3 -26 14.5 -41t35.5 -15q23 0 35 15t12 38q0 22 -14.5 37t-38.5 15h-21v66h22q23 0 34.5 15t11.5 35q0 18 -10.5 31t-29.5 13q-16 0 -28.5 -11t-16.5 -32l-67 13
q19 98 120 98q53 0 86 -30t33 -75q0 -33 -17 -54.5t-43 -29.5q29 -10 49.5 -36.5z" />
    <glyph glyph-name="uni2084" unicode="&#x2084;" horiz-adv-x="310" 
d="M249 -17h41v-65h-41v-68h-88v68h-144v63l134 256h98v-254zM167 -17v179l-93 -179h93z" />
    <glyph glyph-name="uni2085" unicode="&#x2085;" horiz-adv-x="292" 
d="M237.5 68.5q29.5 -34.5 29.5 -91.5q0 -64 -37.5 -99t-93.5 -35q-48 0 -79 27.5t-39 76.5l67 13q3 -22 15.5 -35t33.5 -13q41 0 41 62q0 29 -12 44.5t-30 15.5q-14 0 -24.5 -8t-15.5 -20l-67 9l24 222h199v-69h-136l-12 -92q22 27 61 27q46 0 75.5 -34.5z" />
    <glyph glyph-name="uni2086" unicode="&#x2086;" horiz-adv-x="308" 
d="M253 68.5q28 -32.5 28 -90.5q0 -63 -35 -99t-88 -36q-56 0 -94 43.5t-38 148.5q0 96 36 152.5t101 56.5q44 0 73.5 -25.5t38.5 -72.5l-66 -14q-5 20 -15.5 31.5t-24.5 11.5q-24 0 -37 -24.5t-15 -82.5q21 33 62 33q46 0 74 -32.5zM182.5 -70q9.5 18 9.5 46q0 60 -37 60
q-18 0 -27.5 -15.5t-9.5 -44.5q0 -28 9 -46t28 -18q18 0 27.5 18z" />
    <glyph glyph-name="uni2087" unicode="&#x2087;" horiz-adv-x="264" 
d="M15 237h235v-72q-52 -60 -72.5 -139t-22.5 -176h-94q0 94 33 178t91 140h-170v69z" />
    <glyph glyph-name="uni2088" unicode="&#x2088;" horiz-adv-x="313" 
d="M270.5 11.5q17.5 -23.5 17.5 -59.5q0 -49 -38.5 -79t-91.5 -30q-58 0 -95.5 28t-37.5 77q0 58 68 93q-26 17 -41.5 39t-15.5 56q0 44 33 76t87 32q50 0 85 -29t35 -74q0 -30 -14.5 -50t-40.5 -35q32 -21 49.5 -44.5zM130.5 173.5q-11.5 -10.5 -11.5 -28.5t11.5 -31
t33.5 -25l6 -3q31 21 31 54q0 22 -13 33t-30 11q-16 0 -27.5 -10.5zM186.5 -81.5q12.5 11.5 12.5 31.5q0 19 -12.5 32t-41.5 30q-40 -24 -40 -62q0 -20 13.5 -31.5t35.5 -11.5q20 0 32.5 11.5z" />
    <glyph glyph-name="uni2089" unicode="&#x2089;" horiz-adv-x="293" 
d="M233.5 205q35.5 -39 35.5 -109q0 -77 -35 -138t-95 -117l-77 24q38 36 65 69.5t42 70.5q-20 -17 -49 -17q-42 0 -72 32t-30 90q0 62 34.5 98t89.5 36q56 0 91.5 -39zM173.5 70q9.5 17 9.5 43q0 28 -9.5 45t-27.5 17t-28 -16.5t-10 -45.5q0 -26 9.5 -43t28.5 -17
q18 0 27.5 17z" />
    <glyph glyph-name="colonmonetary" unicode="&#x20a1;" 
d="M459 207q-20 -149 -110 -190l-7 -105h-68l6 88h-13q-19 0 -37 3l-6 -91h-68l8 115q-57 35 -87.5 112.5t-30.5 195.5q0 139 41.5 221t116.5 104l6 89h66l-5 -81q28 -2 51 -7l6 88h66l-8 -123q53 -47 69 -148l-96 -20q-10 62 -33 86.5t-56 24.5q-45 0 -67.5 -52t-22.5 -182
q0 -128 23.5 -182t68.5 -54q35 0 57.5 26.5t32.5 102.5z" />
    <glyph glyph-name="uni20A6" unicode="&#x20a6;" 
d="M485 435v-65h-59v-61h59v-65h-59v-244h-143l-110 431v-431h-101v244h-57v65h57v61h-57v65h57v233h142l111 -437v437h101v-233h59z" />
    <glyph glyph-name="uni20A9" unicode="&#x20a9;" 
d="M485 445v-65h-47l-6 -61h53v-65h-59l-25 -254h-104l-45 448l-48 -448h-103l-25 254h-61v65h54l-6 61h-48v65h42l-22 223h99l32 -481l48 481h89l44 -483l39 483h80l-22 -223h41z" />
    <glyph glyph-name="uni20AA" unicode="&#x20aa;" 
d="M207 484q57 0 84.5 -11.5t38.5 -43t11 -96.5v-155h-68v134q0 51 -4 70t-20 26t-58 7h-75v-415h-77v484h168zM162 0v314h68v-244h10q56 0 86.5 12t46 50t15.5 116v236h77v-228q0 -112 -26.5 -167t-78 -72t-145.5 -17h-53z" />
    <glyph glyph-name="dong" unicode="&#x20ab;" 
d="M376 605h69v-65h-69v-427h-100v44q-28 -52 -84 -52q-60 0 -96.5 50t-36.5 141q0 89 36.5 138.5t96.5 49.5q51 0 77 -40v96h-107v65h107v63h107v-63zM258 206q12 32 12 90q0 56 -12.5 87t-36.5 31q-48 0 -48 -118q0 -122 48 -122q25 0 37 32zM416 0h-356v65h356v-65z" />
    <glyph glyph-name="Euro" unicode="&#x20ac;" 
d="M470 178q-16 -103 -62.5 -146.5t-116.5 -43.5q-79 0 -136.5 62t-72.5 194h-53v65h48v26q0 24 1 35h-49v65h54q17 127 74 186t134 59q67 0 114.5 -42t62.5 -133l-95 -21q-20 97 -76 97q-32 0 -52.5 -34t-29.5 -112h119v-65h-123v-35v-26h123v-65h-119q14 -157 82 -157
q28 0 47.5 26t30.5 85z" />
    <glyph glyph-name="uni20AD" unicode="&#x20ad;" 
d="M484 0h-139l-139 311h-7v-311h-126v311h-54v77h54v280h126v-280h12l147 280h112l-154 -280h139v-77h-120z" />
    <glyph glyph-name="uni20AE" unicode="&#x20ae;" 
d="M455 668v-94h-142v-137l90 33v-69l-90 -33v-64l90 33v-69l-90 -33v-235h-124v200l-87 -31v68l87 33v64l-87 -32v69l87 31v172h-142v94h408z" />
    <glyph glyph-name="uni20B1" unicode="&#x20b1;" 
d="M488 535v-65h-57v-14q0 -13 -2 -35h59v-65h-72q-20 -58 -64 -88t-105 -30h-47v-238h-125v356h-58v65h58v49h-58v65h58v133h172q64 0 110 -35t64 -98h67zM223 329q44 0 63 32.5t19 91.5q0 120 -82 120h-23v-244h23z" />
    <glyph glyph-name="uni20B2" unicode="&#x20b2;" 
d="M462 345v-277q-32 -24 -71 -41.5t-82 -23.5v-91h-86v92q-87 17 -136.5 99.5t-49.5 230.5q0 150 50 232.5t136 98.5v84h86v-85q57 -11 97 -51t53 -114l-95 -25q-22 95 -94 95q-99 0 -99 -235q0 -126 28 -180.5t84 -54.5q39 0 69 19v137h-80v90h190z" />
    <glyph glyph-name="uni20B4" unicode="&#x20b4;" 
d="M115.5 35.5q-54.5 47.5 -54.5 126.5q0 48 18 82h-63v65h106q38 32 80 61h-186v65h260q38 32 38 76q0 31 -17.5 50t-48.5 19t-53 -18t-41 -58l-85 43q28 68 76 100.5t111 32.5q84 0 132 -47t48 -121q0 -41 -17 -77h63v-65h-100q-66 -50 -82 -61h182v-65h-258
q-41 -36 -41 -81q0 -35 21 -56t56 -21q80 0 116 93l87 -45q-56 -146 -206 -146q-87 0 -141.5 47.5z" />
    <glyph glyph-name="uni20B5" unicode="&#x20b5;" 
d="M459 207q-25 -178 -149 -203v-92h-85v92q-84 16 -131.5 100t-47.5 231q0 150 47 232.5t132 97.5v84h85v-86q120 -24 145 -185l-96 -20q-10 62 -33 86.5t-56 24.5q-45 0 -67.5 -52t-22.5 -182q0 -128 23.5 -182t68.5 -54q35 0 57.5 26.5t32.5 102.5z" />
    <glyph glyph-name="uni20B8" unicode="&#x20b8;" 
d="M46 574v94h408v-94h-408zM188 412h-142v94h408v-94h-142v-412h-124v412z" />
    <glyph glyph-name="uni20B9" unicode="&#x20b9;" 
d="M455 668v-84h-136q52 -31 68 -92h68v-77h-64q-12 -120 -122 -162l151 -253h-143l-123 230q-13 -1 -41 -1h-33v84h34q69 0 103 23.5t41 78.5h-211v77h211q-8 49 -42 70.5t-98 21.5h-71v84h408z" />
    <glyph glyph-name="uni20BA" unicode="&#x20ba;" 
d="M103 0v244l-73 -27v69l73 28v64l-73 -26v69l73 26v221h126v-188l102 37v-68l-102 -38v-64l102 37v-69l-102 -37v-160q53 5 94 46.5t61 119.5l97 -31q-53 -253 -329 -253h-49z" />
    <glyph glyph-name="uni20BC" unicode="&#x20bc;" 
d="M454 396q9 -56 9 -155v-241h-111v224q0 76 -4 121t-14 74q-11 33 -39 51v-370h-93v368q-21 -14 -37 -49q-11 -27 -14.5 -70.5t-3.5 -124.5v-224h-110v241q0 98 9.5 154t34.5 95q41 67 117 82v108h101v-107q79 -17 121 -83q25 -38 34 -94z" />
    <glyph glyph-name="uni20BD" unicode="&#x20bd;" 
d="M217 276v-68h135v-77h-135v-131h-126v131h-57v77h57v68h-57v90h57v302h169q98 0 156 -49t58 -145q0 -99 -58 -148.5t-156 -49.5h-43zM217 573v-207h35q44 0 69 26t25 79q0 52 -25 77t-69 25h-35z" />
    <glyph glyph-name="uni20BF" unicode="&#x20bf;" 
d="M412 76.5q-33 -46.5 -88 -65.5v-99h-67v88h-5h-50v-88h-67v88h-67v668h67v81h67v-81h33q15 0 22 -1v82h67v-95q50 -18 76 -58t26 -97q0 -51 -24 -87t-66 -54q50 -19 79.5 -62t29.5 -104q0 -69 -33 -115.5zM286 550q-16 23 -53 23h-40v-185h33q37 0 56.5 23t19.5 67
q0 49 -16 72zM232 95q84 0 84 104q0 99 -82 99h-41v-203h39z" />
    <glyph glyph-name="uni2113" unicode="&#x2113;" horiz-adv-x="396" 
d="M382 102q-43 -112 -160 -112q-63 0 -101 36t-38 131v10l-45 -18l-24 73q42 17 69 31v188q0 71 5 108.5t21 66.5q15 29 45 46.5t72 17.5q62 0 98.5 -43t36.5 -127q0 -82 -41 -154.5t-129 -130.5v-32q0 -64 10.5 -89t39.5 -25q45 0 70 62zM192.5 527.5
q-1.5 -26.5 -1.5 -96.5v-99q70 76 70 189q0 75 -31 75q-22 0 -30 -25q-6 -17 -7.5 -43.5z" />
    <glyph glyph-name="uni2116" unicode="&#x2116;" horiz-adv-x="844" 
d="M578.5 349.5q-37.5 48.5 -37.5 138.5q0 93 37 140t102 47t102 -47t37 -140q0 -90 -37.5 -138.5t-101.5 -48.5t-101.5 48.5zM214 668l157 -468v468h109v-668h-165l-156 467v-467h-109v668h164zM633 488q0 -121 47 -121t47 121q0 122 -47 122t-47 -122zM808 172h-253v70
h253v-70z" />
    <glyph glyph-name="uni2117" unicode="&#x2117;" horiz-adv-x="576" 
d="M421.5 629.5q58.5 -38.5 92.5 -114t34 -181.5q0 -107 -34 -182t-92.5 -113.5t-132.5 -38.5t-133.5 38.5t-93.5 113.5t-34 182q0 106 34 181.5t93.5 114t133.5 38.5t132.5 -38.5zM430 133q51 72 51 201t-51 201.5t-141 72.5q-91 0 -144 -73t-53 -201q0 -130 53 -201.5
t144 -71.5q90 0 141 72zM387 490q34 -29 34 -89q0 -57 -34 -88t-89 -31h-31v-137h-81v374h112q55 0 89 -29zM291 350q22 0 34 13t12 37q0 27 -11.5 38.5t-34.5 11.5h-24v-100h24z" />
    <glyph glyph-name="uni2120" unicode="&#x2120;" horiz-adv-x="656" 
d="M191 509q32 -19 50 -42.5t18 -63.5q0 -49 -33 -79t-84 -30q-36 0 -70 20.5t-47 64.5l56 29q8 -24 24 -37t31 -13q19 0 30.5 9t11.5 26q0 27 -43 52l-31 18q-36 22 -53 48.5t-17 62.5q0 44 28.5 72.5t76.5 28.5q78 0 114 -79l-58 -28q-8 20 -21 32t-28 12
q-14 0 -22.5 -8.5t-8.5 -23.5q0 -16 11 -27t34 -25zM455 441l39 227h117v-367h-76v272l-52 -272h-72l-52 267v-267h-66v367h122z" />
    <glyph glyph-name="trademark" unicode="&#x2122;" horiz-adv-x="645" 
d="M19 668h230v-62h-74v-305h-82v305h-74v62zM440 441l39 227h117v-367h-75v276l-52 -276h-73l-52 267v-267h-66v367h122z" />
    <glyph glyph-name="uni2126" unicode="&#x2126;" horiz-adv-x="549" 
d="M517 94v-94h-208v91q33 39 51.5 105.5t18.5 155.5q0 114 -27.5 169t-77.5 55t-77.5 -55t-27.5 -169q0 -88 19 -155t51 -106v-91h-205v94h105q-49 50 -77 125.5t-28 159.5q0 95 30.5 162.5t84.5 103t125 35.5t125 -35.5t84.5 -103t30.5 -162.5q0 -82 -28.5 -158
t-75.5 -127h107z" />
    <glyph glyph-name="estimated" unicode="&#x212e;" horiz-adv-x="528" 
d="M134 329v-216q24 -38 63.5 -60.5t89.5 -22.5q60 0 98.5 25.5t66.5 86.5l41 -22q-36 -70 -86 -100t-119 -30q-76 0 -134.5 39t-91.5 116t-33 188q0 118 35 196t90.5 114.5t118.5 36.5q69 0 121 -36.5t81 -109t29 -176.5q0 -25 -1 -29h-369zM192 619q-37 -22 -58 -58v-195
h265v216q-41 59 -126 59q-44 0 -81 -22z" />
    <glyph glyph-name="uni2153" unicode="&#x2153;" horiz-adv-x="726" 
d="M180 350h62v-69h-215v69h63v200q-22 -9 -63 -11v64q77 3 93 65h60v-318zM233 0h-91l340 668h92zM679.5 168.5q20.5 -26.5 20.5 -61.5q0 -50 -37.5 -82t-97.5 -32q-54 0 -84.5 28t-35.5 83l67 13q3 -26 14.5 -41t35.5 -15q23 0 35 15t12 38q0 22 -14.5 37t-38.5 15h-21v66
h22q23 0 34.5 15t11.5 35q0 18 -10.5 31t-29.5 13q-16 0 -28.5 -11t-16.5 -32l-67 13q19 98 120 98q53 0 86 -30t33 -75q0 -33 -17 -54.5t-43 -29.5q29 -10 49.5 -36.5z" />
    <glyph glyph-name="uni2154" unicode="&#x2154;" horiz-adv-x="745" 
d="M267 350v-69h-240v67q86 77 116.5 125t30.5 90q0 20 -9 31.5t-25 11.5q-18 0 -28.5 -14.5t-9.5 -45.5h-77q0 129 124 129q49 0 83 -29.5t34 -77.5q0 -54 -35 -103.5t-115 -114.5h151zM252 0h-91l340 668h92zM698.5 168.5q20.5 -26.5 20.5 -61.5q0 -50 -37.5 -82
t-97.5 -32q-54 0 -84.5 28t-35.5 83l67 13q3 -26 14.5 -41t35.5 -15q23 0 35 15t12 38q0 22 -14.5 37t-38.5 15h-21v66h22q23 0 34.5 15t11.5 35q0 18 -10.5 31t-29.5 13q-16 0 -28.5 -11t-16.5 -32l-67 13q19 98 120 98q53 0 86 -30t33 -75q0 -33 -17 -54.5t-43 -29.5
q29 -10 49.5 -36.5z" />
    <glyph glyph-name="arrowleft" unicode="&#x2190;" horiz-adv-x="592" 
d="M178 355h389v-90h-388l126 -118l-64 -64l-227 228l227 226l63 -63z" />
    <glyph glyph-name="arrowup" unicode="&#x2191;" horiz-adv-x="481" 
d="M241 600l227 -226l-62 -62l-120 125v-381h-90v383l-120 -127l-63 62z" />
    <glyph glyph-name="arrowright" unicode="&#x2192;" horiz-adv-x="592" 
d="M288 474l63 63l227 -226l-227 -228l-64 64l126 118h-388v90h389z" />
    <glyph glyph-name="arrowdown" unicode="&#x2193;" horiz-adv-x="483" 
d="M287 184l120 125l62 -62l-227 -227l-228 227l63 62l119 -126v382h91v-381z" />
    <glyph glyph-name="uni2196" unicode="&#x2196;" horiz-adv-x="475" 
d="M191 440l269 -268l-65 -65l-268 273l5 -190h-88v335h330v-89z" />
    <glyph glyph-name="uni2197" unicode="&#x2197;" horiz-adv-x="475" 
d="M101 436v89h330v-335h-88l5 190l-268 -273l-65 65l269 268z" />
    <glyph glyph-name="uni2198" unicode="&#x2198;" horiz-adv-x="483" 
d="M346 249l-5 190h89v-334h-330v88l182 -4l-268 269l64 64z" />
    <glyph glyph-name="uni2199" unicode="&#x2199;" horiz-adv-x="483" 
d="M405 522l64 -64l-268 -269l182 4v-88h-330v334h89l-5 -190z" />
    <glyph glyph-name="partialdiff" unicode="&#x2202;" horiz-adv-x="433" 
d="M90 683q163 -4 238.5 -112t75.5 -289q0 -146 -46.5 -219t-146.5 -73q-91 0 -142 67t-51 176q0 68 20.5 119.5t57.5 80t86 28.5q65 0 95 -53q-10 87 -66.5 131t-141.5 48zM282 232q0 71 -15.5 106t-50.5 35q-32 0 -51 -34.5t-19 -107.5q0 -150 68 -150t68 151z" />
    <glyph glyph-name="emptyset" unicode="&#x2205;" horiz-adv-x="740" 
d="M714 612l-72 -72q62 -88 62 -206q0 -96 -43 -174.5t-119 -124t-171 -45.5q-120 0 -208 71l-77 -77l-61 60l79 78q-67 90 -67 212q0 96 43.5 175t119.5 124t171 45q62 0 117 -19.5t98 -56.5l68 68zM171 189l349 347q-30 26 -68.5 39.5t-80.5 13.5q-68 0 -122.5 -33
t-85.5 -91t-31 -131q0 -81 39 -145zM573 471l-345 -345q60 -48 143 -48q67 0 121 33.5t85 92t31 130.5q0 78 -35 137z" />
    <glyph glyph-name="uni2206" unicode="&#x2206;" horiz-adv-x="503" 
d="M181 668h141l167 -581v-87h-475v87zM355 97l-111 425l-118 -425h229z" />
    <glyph glyph-name="product" unicode="&#x220f;" horiz-adv-x="509" 
d="M459 668v-778h-130v678h-149v-678h-130v778h409z" />
    <glyph glyph-name="summation" unicode="&#x2211;" horiz-adv-x="427" 
d="M25 669h381v-98h-247l141 -292l-141 -291h247v-98h-381v95l143 294l-143 295v95z" />
    <glyph glyph-name="minus" unicode="&#x2212;" 
d="M439 256h-378v97h378v-97z" />
    <glyph glyph-name="uni2219" unicode="&#x2219;" 
d="M193.5 250q-22.5 21 -22.5 53q0 34 22 55t57 21t57 -21t22 -55q0 -32 -22 -53t-57 -21q-34 0 -56.5 21z" />
    <glyph glyph-name="radical" unicode="&#x221a;" horiz-adv-x="482" 
d="M256 -44l119 861h110l-159 -997h-131l-96 367h-106v86h195z" />
    <glyph glyph-name="infinity" unicode="&#x221e;" horiz-adv-x="656" 
d="M554.5 439.5q33.5 -17.5 55 -52.5t21.5 -85t-21 -85t-54 -52.5t-69 -17.5q-50 0 -86 20.5t-72 66.5q-36 -46 -72 -66.5t-86 -20.5q-36 0 -69.5 17.5t-55 52.5t-21.5 85t21.5 85t55 52.5t69.5 17.5q50 0 86 -20.5t71 -66.5q37 46 72 66.5t85 20.5q36 0 69.5 -17.5z
M228 244q21 17 52 58q-30 42 -51 58.5t-48 16.5q-26 0 -44 -20.5t-18 -54.5t18 -54.5t44 -20.5t47 17zM520 247.5q17 20.5 17 54.5t-17 54.5t-43 20.5q-27 0 -49 -16.5t-53 -58.5q32 -41 53.5 -58t48.5 -17q26 0 43 20.5z" />
    <glyph glyph-name="integral" unicode="&#x222b;" horiz-adv-x="269" 
d="M271 811v-87q-10 1 -19.5 2t-21.5 1q-23 0 -33.5 -14t-10.5 -42v-723q0 -68 -31.5 -103.5t-88.5 -35.5q-40 0 -68 7v88q27 -3 41 -3q23 0 33.5 13.5t10.5 41.5v723q0 68 31.5 103.5t87.5 35.5q46 0 69 -7z" />
    <glyph glyph-name="congruent" unicode="&#x2245;" 
d="M282.5 525.5q-23.5 9.5 -51.5 27.5q-23 14 -34.5 20t-24.5 6q-33 0 -39 -61h-82q4 86 35.5 122t79.5 36q25 0 47 -9.5t51 -27.5q20 -13 34 -19.5t27 -6.5q17 0 26.5 13.5t13.5 47.5h81q-4 -85 -35.5 -121.5t-77.5 -36.5q-27 0 -50.5 9.5zM448 350h-396v94h396v-94z
M448 160h-396v93h396v-93z" />
    <glyph glyph-name="approxequal" unicode="&#x2248;" 
d="M287 334q-22 9 -55 29q-42 25 -63 25t-29.5 -14.5t-11.5 -46.5h-86q4 87 36 123t85 36q28 0 47.5 -8.5t54.5 -29.5q3 -2 16.5 -10t25.5 -12t23 -4q20 0 28.5 13t12.5 49h86q-4 -87 -35 -123t-84 -36q-29 0 -51 9zM289 123.5q-22 8.5 -54 28.5q-39 25 -63 25
q-21 0 -29.5 -14t-11.5 -46h-86q4 87 36 122.5t85 35.5q29 0 50 -8.5t53 -28.5q5 -3 18 -11t24 -12t22 -4q20 0 28.5 12.5t12.5 49.5h86q-4 -87 -35 -122.5t-84 -35.5q-30 0 -52 8.5z" />
    <glyph glyph-name="uni2259" unicode="&#x2259;" 
d="M316 512l-66 113l-66 -113h-96l132 222h60l132 -222h-96zM52 353v94h396v-94h-396zM448 162h-396v94h396v-94z" />
    <glyph glyph-name="notequal" unicode="&#x2260;" 
d="M448 447v-94h-143l-49 -97h192v-94h-238l-42 -84h-80l42 84h-78v94h124l49 97h-173v94h219l40 80h80l-40 -80h97z" />
    <glyph glyph-name="lessequal" unicode="&#x2264;" 
d="M59 403l376 155v-99l-273 -103l273 -103v-100l-376 156v94zM435 21h-376v91h376v-91z" />
    <glyph glyph-name="greaterequal" unicode="&#x2265;" 
d="M65 459v99l376 -155v-94l-376 -156v100l273 103zM441 21h-376v91h376v-91z" />
    <glyph glyph-name="dotmath" unicode="&#x22c5;" 
d="M202.5 259q-18.5 17 -18.5 45q0 27 18.5 44.5t47.5 17.5q28 0 46.5 -17.5t18.5 -44.5q0 -28 -18 -45t-47 -17t-47.5 17z" />
    <glyph glyph-name="uni2300" unicode="&#x2300;" 
d="M467 463l-47 -47q32 -51 32 -116q0 -60 -27 -107.5t-73.5 -74t-102.5 -26.5q-63 0 -115 35l-43 -44l-58 57l46 46q-31 50 -31 114q0 61 26.5 108.5t72.5 74t102 26.5q65 0 114 -34l47 47zM168 390q-32 -35 -32 -90q0 -28 9 -52l161 161q-27 16 -57 16q-49 0 -81 -35z
M330 211.5q33 35.5 33 88.5q0 26 -8 48l-159 -159q26 -13 53 -13q48 0 81 35.5z" />
    <glyph glyph-name="filledbox" unicode="&#x25a0;" horiz-adv-x="768" 
d="M50 0v668h668v-668h-668z" />
    <glyph glyph-name="uni25A1" unicode="&#x25a1;" horiz-adv-x="768" 
d="M718 0h-668v668h668v-668zM113 610v-552h542v552h-542z" />
    <glyph glyph-name="triagup" unicode="&#x25b2;" horiz-adv-x="726" 
d="M0 0l363 685l363 -685h-726z" />
    <glyph glyph-name="uni25B3" unicode="&#x25b3;" horiz-adv-x="726" 
d="M0 0l363 685l363 -685h-726zM100 58h526l-263 498z" />
    <glyph glyph-name="uni25B4" unicode="&#x25b4;" horiz-adv-x="337" 
d="M11 204l157 279l158 -279h-315z" />
    <glyph glyph-name="uni25B8" unicode="&#x25b8;" horiz-adv-x="337" 
d="M49 501l279 -158l-279 -157v315z" />
    <glyph glyph-name="triagdn" unicode="&#x25bc;" horiz-adv-x="726" 
d="M726 668l-363 -685l-363 685h726z" />
    <glyph glyph-name="uni25BD" unicode="&#x25bd;" horiz-adv-x="726" 
d="M363 -17l-363 685h726zM363 112l263 498h-526z" />
    <glyph glyph-name="uni25BE" unicode="&#x25be;" horiz-adv-x="337" 
d="M326 473l-158 -279l-157 279h315z" />
    <glyph glyph-name="uni25C2" unicode="&#x25c2;" horiz-adv-x="337" 
d="M288 186l-279 157l279 158v-315z" />
    <glyph glyph-name="lozenge" unicode="&#x25ca;" 
d="M221 680h58l189 -340l-189 -340h-58l-189 340zM373 340l-123 227l-123 -227l123 -227z" />
    <glyph glyph-name="circle" unicode="&#x25cb;" horiz-adv-x="748" 
d="M193.5 19q-80.5 48 -126 131t-45.5 184t45.5 184t126 130.5t181.5 47.5t181 -47.5t125 -130t45 -184.5t-45 -185t-125 -130.5t-181 -47.5t-181.5 48zM522 69.5q64 39.5 99.5 109t35.5 155.5t-35.5 155t-99.5 108.5t-147 39.5q-84 0 -149 -39.5t-100.5 -108.5t-35.5 -155
t35.5 -155.5t100.5 -109t149 -39.5q83 0 147 39.5z" />
    <glyph glyph-name="uni25CF" unicode="&#x25cf;" horiz-adv-x="748" 
d="M193.5 19q-80.5 48 -126 131t-45.5 184t45.5 184t126 130.5t181.5 47.5t181 -47.5t125 -130t45 -184.5t-45 -185t-125 -130.5t-181 -47.5t-181.5 48z" />
    <glyph glyph-name="fi" unicode="&#xfb01;" horiz-adv-x="499" 
d="M216 577q-11 -12 -11 -42v-51h78v-87h-78v-397h-124v397h-70v87h70v57q0 69 37 104t102 35q44 0 68 -6v-89q-32 4 -39 4q-22 0 -33 -12zM334 0v484h124v-484h-124zM343 559.5q-21 19.5 -21 50.5q0 32 21 52t53 20q33 0 54 -20t21 -52q0 -31 -21 -50.5t-54 -19.5
q-32 0 -53 19.5z" />
    <glyph glyph-name="fl" unicode="&#xfb02;" horiz-adv-x="521" 
d="M216 577q-11 -12 -11 -42v-51h78v-87h-78v-397h-124v397h-70v87h70v57q0 69 37 104t102 35q44 0 68 -6v-89q-32 4 -39 4q-22 0 -33 -12zM505 -3q-27 -7 -71 -7q-49 0 -75 24.5t-26 80.5v573h124v-554q0 -19 6 -26t18 -7q11 0 24 3v-87z" />
    <glyph glyph-name="uniFEFF" unicode="&#xfeff;" horiz-adv-x="0" 
 />
    <glyph glyph-name="NULL" horiz-adv-x="0" 
 />
    <glyph glyph-name="uni004A0301" horiz-adv-x="295" 
d="M199 727h-65l60 120h135v-10zM5 -110v106q24 -6 50 -6q61 0 61 76v602h130v-621q0 -82 -43.5 -123t-120.5 -41q-43 0 -77 7z" />
    <glyph glyph-name="L_periodcentered.latnCAT" horiz-adv-x="406" 
d="M50 668h130v-568h200v-100h-330v668zM265 311q-20 19 -20 49q0 31 20 50t51 19q32 0 52 -19t20 -50q0 -30 -20 -49t-52 -19q-31 0 -51 19z" />
    <glyph glyph-name="i.loclTRK" horiz-adv-x="206" 
d="M41 0v484h124v-484h-124zM50 559.5q-21 19.5 -21 50.5q0 32 21 52t53 20q33 0 54 -20t21 -52q0 -31 -21 -50.5t-54 -19.5q-32 0 -53 19.5z" />
    <glyph glyph-name="uni006A0301" horiz-adv-x="212" 
d="M116 543h-63l60 125h130v-11zM-35 -177v90q30 -4 38 -4q22 0 33 13t11 44v518h124v-533q0 -71 -33.5 -102t-99.5 -31q-48 0 -73 5z" />
    <glyph glyph-name="l_periodcentered.latnCAT" horiz-adv-x="359" 
d="M212 -3q-27 -7 -71 -7q-49 0 -75 24.5t-26 80.5v573h124v-554q0 -19 6 -26t18 -7q11 0 24 3v-87zM232.5 298q-19.5 19 -19.5 48q0 31 19.5 50t49.5 19t49 -19t19 -50q0 -29 -19.5 -48t-48.5 -19q-30 0 -49.5 19z" />
    <glyph glyph-name="uni01F2.sc" horiz-adv-x="894" 
d="M373.5 629q59.5 -39 93.5 -114.5t34 -180.5t-34 -180.5t-93.5 -114.5t-133.5 -39h-190v668h190q74 0 133.5 -39zM225 100q66 0 103 58.5t37 175.5t-37 175.5t-103 58.5h-45v-468h45zM871 420l-187 -327h188v-93h-324v91l187 327h-175v92h311v-90z" />
    <glyph glyph-name="uni01C5.sc" horiz-adv-x="894" 
d="M373.5 629q59.5 -39 93.5 -114.5t34 -180.5t-34 -180.5t-93.5 -114.5t-133.5 -39h-190v668h190q74 0 133.5 -39zM225 100q66 0 103 58.5t37 175.5t-37 175.5t-103 58.5h-45v-468h45zM871 420l-187 -327h188v-93h-324v91l187 327h-175v92h311v-90zM712 643l71 52h63
l-88 -125h-91l-89 125h63z" />
    <glyph glyph-name="uni01C8.sc" horiz-adv-x="653" 
d="M180 668v-568h200v-100h-330v668h130zM402 -83v98q18 -5 35 -5q49 0 49 53v447h123v-461q0 -70 -37 -104.5t-106 -34.5q-35 0 -64 7z" />
    <glyph glyph-name="uni01CB.sc" horiz-adv-x="789" 
d="M371 200v468h109v-668h-165l-156 467v-467h-109v668h164zM539 -83v98q18 -5 35 -5q49 0 49 53v447h123v-461q0 -70 -37 -104.5t-106 -34.5q-35 0 -64 7z" />
    <glyph glyph-name="a.sc" horiz-adv-x="424" 
d="M419 0h-130l-20 94h-133l-22 -94h-107l138 510h131zM205 391l-49 -212h95z" />
    <glyph glyph-name="aacute.sc" horiz-adv-x="424" 
d="M419 0h-130l-20 94h-133l-22 -94h-107l138 510h131zM205 391l-49 -212h95zM218 570h-63l70 125h134v-11z" />
    <glyph glyph-name="abreve.sc" horiz-adv-x="424" 
d="M419 0h-130l-20 94h-133l-22 -94h-107l138 510h131zM205 391l-49 -212h95zM123 597.5q-33 33.5 -37 97.5h60q14 -54 67 -54t67 54h60q-4 -64 -37 -97.5t-90 -33.5t-90 33.5z" />
    <glyph glyph-name="uni01CE.sc" horiz-adv-x="424" 
d="M419 0h-130l-20 94h-133l-22 -94h-107l138 510h131zM205 391l-49 -212h95zM213 643l71 52h63l-88 -125h-91l-89 125h63z" />
    <glyph glyph-name="acircumflex.sc" horiz-adv-x="424" 
d="M419 0h-130l-20 94h-133l-22 -94h-107l138 510h131zM205 391l-49 -212h95zM259 695l88 -125h-63l-71 52l-71 -52h-63l89 125h91z" />
    <glyph glyph-name="adieresis.sc" horiz-adv-x="424" 
d="M419 0h-130l-20 94h-133l-22 -94h-107l138 510h131zM205 391l-49 -212h95zM81 582.5q-18 17.5 -18 45.5q0 29 18 46.5t47 17.5t47 -17.5t18 -46.5q0 -28 -18 -45.5t-47 -17.5t-47 17.5zM250 582.5q-18 17.5 -18 45.5q0 29 18 46.5t46 17.5q29 0 47.5 -17.5t18.5 -46.5
q0 -28 -18.5 -45.5t-47.5 -17.5q-28 0 -46 17.5z" />
    <glyph glyph-name="ae.sc" horiz-adv-x="574" 
d="M389 218v-125h156v-93h-280v99h-123l-38 -99h-116l218 510h335v-92h-152v-110h139v-90h-139zM265 419l-90 -235h90v235z" />
    <glyph glyph-name="agrave.sc" horiz-adv-x="424" 
d="M419 0h-130l-20 94h-133l-22 -94h-107l138 510h131zM205 391l-49 -212h95zM200 695l70 -125h-64l-140 114v11h134z" />
    <glyph glyph-name="amacron.sc" horiz-adv-x="424" 
d="M419 0h-130l-20 94h-133l-22 -94h-107l138 510h131zM205 391l-49 -212h95zM336 583h-246v87h246v-87z" />
    <glyph glyph-name="aogonek.sc" horiz-adv-x="424" 
d="M426 -118q-22 -33 -48.5 -48.5t-68.5 -15.5q-48 0 -76.5 23.5t-28.5 60.5q0 59 68 105l14 9l-17 78h-133l-22 -94h-107l138 510h131l143 -510h-68q-48 -37 -48 -71q0 -14 8 -22.5t18 -8.5q14 0 23.5 7t23.5 23zM205 391l-49 -212h95z" />
    <glyph glyph-name="aring.sc" horiz-adv-x="424" 
d="M419 0h-130l-20 94h-133l-22 -94h-107l138 510h131zM205 391l-49 -212h95zM130 597q-32 29 -32 73q0 43 32 72.5t82 29.5t82.5 -29.5t32.5 -72.5q0 -44 -32.5 -73t-82.5 -29t-82 29zM240.5 642q11.5 11 11.5 28t-11 28t-29 11q-17 0 -27.5 -11.5t-10.5 -27.5
q0 -17 10.5 -28t27.5 -11t28.5 11z" />
    <glyph glyph-name="atilde.sc" horiz-adv-x="424" 
d="M419 0h-130l-20 94h-133l-22 -94h-107l138 510h131zM205 391l-49 -212h95zM225.5 579.5q-15.5 7.5 -30.5 19.5q-8 5 -16 9.5t-14 4.5q-25 0 -29 -36h-61q3 66 29.5 91.5t60.5 25.5q20 0 34.5 -6.5t30.5 -18.5q20 -16 31 -16q23 0 28 36h61q-3 -65 -29 -91t-61 -26
q-19 0 -34.5 7.5z" />
    <glyph glyph-name="b.sc" horiz-adv-x="402" 
d="M353 229.5q27 -32.5 27 -79.5q0 -46 -22.5 -80t-61 -52t-83.5 -18h-170v510h150q81 0 124.5 -35t43.5 -91q0 -38 -21 -67t-58 -43q44 -12 71 -44.5zM163 421v-115h33q50 0 50 57q0 28 -12.5 43t-37.5 15h-33zM201 89q53 0 53 67q0 31 -13.5 48t-39.5 17h-38v-132h38z" />
    <glyph glyph-name="c.sc" horiz-adv-x="395" 
d="M173.5 127q17.5 -40 49.5 -40q48 0 63 88l94 -21q-14 -89 -56 -126.5t-106 -37.5q-52 0 -95.5 29.5t-70 89t-26.5 147.5q0 87 26.5 146.5t70 88.5t94.5 29q61 0 103.5 -36.5t56.5 -116.5l-94 -21q-8 40 -22.5 58.5t-37.5 18.5q-32 0 -49.5 -39t-17.5 -128t17.5 -129z" />
    <glyph glyph-name="cacute.sc" horiz-adv-x="395" 
d="M173.5 127q17.5 -40 49.5 -40q48 0 63 88l94 -21q-14 -89 -56 -126.5t-106 -37.5q-52 0 -95.5 29.5t-70 89t-26.5 147.5q0 87 26.5 146.5t70 88.5t94.5 29q61 0 103.5 -36.5t56.5 -116.5l-94 -21q-8 40 -22.5 58.5t-37.5 18.5q-32 0 -49.5 -39t-17.5 -128t17.5 -129z
M219 570h-63l70 125h134v-11z" />
    <glyph glyph-name="ccaron.sc" horiz-adv-x="395" 
d="M173.5 127q17.5 -40 49.5 -40q48 0 63 88l94 -21q-14 -89 -56 -126.5t-106 -37.5q-52 0 -95.5 29.5t-70 89t-26.5 147.5q0 87 26.5 146.5t70 88.5t94.5 29q61 0 103.5 -36.5t56.5 -116.5l-94 -21q-8 40 -22.5 58.5t-37.5 18.5q-32 0 -49.5 -39t-17.5 -128t17.5 -129z
M213 643l71 52h63l-88 -125h-91l-89 125h63z" />
    <glyph glyph-name="ccedilla.sc" horiz-adv-x="395" 
d="M173.5 127q17.5 -40 49.5 -40q48 0 63 88l94 -21q-14 -89 -56 -126.5t-106 -37.5q-52 0 -95.5 29.5t-70 89t-26.5 147.5q0 87 26.5 146.5t70 88.5t94.5 29q61 0 103.5 -36.5t56.5 -116.5l-94 -21q-8 40 -22.5 58.5t-37.5 18.5q-32 0 -49.5 -39t-17.5 -128t17.5 -129z
M290 -58q22 -18 22 -48q0 -36 -28.5 -56t-73.5 -20q-46 0 -75 19l19 48q19 -13 40 -13q12 0 20.5 6.5t8.5 18.5q0 11 -6.5 17.5t-18.5 6.5t-23 -9l-23 14l54 96h51l-38 -63q4 1 12 1q37 0 59 -18z" />
    <glyph glyph-name="ccircumflex.sc" horiz-adv-x="395" 
d="M173.5 127q17.5 -40 49.5 -40q48 0 63 88l94 -21q-14 -89 -56 -126.5t-106 -37.5q-52 0 -95.5 29.5t-70 89t-26.5 147.5q0 87 26.5 146.5t70 88.5t94.5 29q61 0 103.5 -36.5t56.5 -116.5l-94 -21q-8 40 -22.5 58.5t-37.5 18.5q-32 0 -49.5 -39t-17.5 -128t17.5 -129z
M259 695l88 -125h-63l-71 52l-71 -52h-63l89 125h91z" />
    <glyph glyph-name="cdotaccent.sc" horiz-adv-x="395" 
d="M173.5 127q17.5 -40 49.5 -40q48 0 63 88l94 -21q-14 -89 -56 -126.5t-106 -37.5q-52 0 -95.5 29.5t-70 89t-26.5 147.5q0 87 26.5 146.5t70 88.5t94.5 29q61 0 103.5 -36.5t56.5 -116.5l-94 -21q-8 40 -22.5 58.5t-37.5 18.5q-32 0 -49.5 -39t-17.5 -128t17.5 -129z
M160 586.5q-21 19.5 -21 50.5q0 32 21 52t53 20q33 0 54 -20t21 -52q0 -31 -21 -50.5t-54 -19.5q-32 0 -53 19.5z" />
    <glyph glyph-name="d.sc" horiz-adv-x="449" 
d="M321.5 478q48.5 -32 76 -90t27.5 -133t-27.5 -133t-76 -90t-110.5 -32h-168v510h168q62 0 110.5 -32zM200 94q46 0 70.5 41t24.5 120q0 80 -24.5 121t-70.5 41h-33v-323h33z" />
    <glyph glyph-name="dcaron.sc" horiz-adv-x="449" 
d="M321.5 478q48.5 -32 76 -90t27.5 -133t-27.5 -133t-76 -90t-110.5 -32h-168v510h168q62 0 110.5 -32zM200 94q46 0 70.5 41t24.5 120q0 80 -24.5 121t-70.5 41h-33v-323h33zM224 643l71 52h63l-88 -125h-91l-89 125h63z" />
    <glyph glyph-name="dcroat.sc" horiz-adv-x="483" 
d="M355.5 478q48.5 -32 76 -90t27.5 -133t-27.5 -133t-76 -90t-110.5 -32h-168v225h-63v72h63v213h168q62 0 110.5 -32zM234 94q46 0 70.5 41t24.5 120q0 80 -24.5 121t-70.5 41h-33v-120h60v-72h-60v-131h33z" />
    <glyph glyph-name="uni01F3.sc" horiz-adv-x="805" 
d="M321.5 478q48.5 -32 76 -90t27.5 -133t-27.5 -133t-76 -90t-110.5 -32h-168v510h168q62 0 110.5 -32zM200 94q46 0 70.5 41t24.5 120q0 80 -24.5 121t-70.5 41h-33v-323h33zM781 420l-187 -327h188v-93h-324v91l187 327h-175v92h311v-90z" />
    <glyph glyph-name="uni01C6.sc" horiz-adv-x="805" 
d="M321.5 478q48.5 -32 76 -90t27.5 -133t-27.5 -133t-76 -90t-110.5 -32h-168v510h168q62 0 110.5 -32zM200 94q46 0 70.5 41t24.5 120q0 80 -24.5 121t-70.5 41h-33v-323h33zM781 420l-187 -327h188v-93h-324v91l187 327h-175v92h311v-90zM622 643l71 52h63l-88 -125h-91
l-89 125h63z" />
    <glyph glyph-name="e.sc" horiz-adv-x="359" 
d="M167 218v-125h163v-93h-287v510h283v-92h-159v-110h147v-90h-147z" />
    <glyph glyph-name="eacute.sc" horiz-adv-x="359" 
d="M167 218v-125h163v-93h-287v510h283v-92h-159v-110h147v-90h-147zM191 570h-63l70 125h134v-11z" />
    <glyph glyph-name="ebreve.sc" horiz-adv-x="359" 
d="M167 218v-125h163v-93h-287v510h283v-92h-159v-110h147v-90h-147zM96 597.5q-33 33.5 -37 97.5h60q14 -54 67 -54t67 54h60q-4 -64 -37 -97.5t-90 -33.5t-90 33.5z" />
    <glyph glyph-name="ecaron.sc" horiz-adv-x="359" 
d="M167 218v-125h163v-93h-287v510h283v-92h-159v-110h147v-90h-147zM186 643l71 52h63l-88 -125h-91l-89 125h63z" />
    <glyph glyph-name="ecircumflex.sc" horiz-adv-x="359" 
d="M167 218v-125h163v-93h-287v510h283v-92h-159v-110h147v-90h-147zM232 695l88 -125h-63l-71 52l-71 -52h-63l89 125h91z" />
    <glyph glyph-name="edieresis.sc" horiz-adv-x="359" 
d="M167 218v-125h163v-93h-287v510h283v-92h-159v-110h147v-90h-147zM54 582.5q-18 17.5 -18 45.5q0 29 18 46.5t47 17.5t47 -17.5t18 -46.5q0 -28 -18 -45.5t-47 -17.5t-47 17.5zM223 582.5q-18 17.5 -18 45.5q0 29 18 46.5t46 17.5q29 0 47.5 -17.5t18.5 -46.5
q0 -28 -18.5 -45.5t-47.5 -17.5q-28 0 -46 17.5z" />
    <glyph glyph-name="edotaccent.sc" horiz-adv-x="359" 
d="M167 218v-125h163v-93h-287v510h283v-92h-159v-110h147v-90h-147zM133 586.5q-21 19.5 -21 50.5q0 32 21 52t53 20q33 0 54 -20t21 -52q0 -31 -21 -50.5t-54 -19.5q-32 0 -53 19.5z" />
    <glyph glyph-name="egrave.sc" horiz-adv-x="359" 
d="M167 218v-125h163v-93h-287v510h283v-92h-159v-110h147v-90h-147zM173 695l70 -125h-64l-140 114v11h134z" />
    <glyph glyph-name="emacron.sc" horiz-adv-x="359" 
d="M167 218v-125h163v-93h-287v510h283v-92h-159v-110h147v-90h-147zM309 583h-246v87h246v-87z" />
    <glyph glyph-name="eng.sc" horiz-adv-x="449" 
d="M406 510v-520q0 -76 -38.5 -107t-104.5 -31q-28 0 -53 5v80q21 -3 36 -3q46 0 56 36l-157 356v-326h-102v510h137l124 -286v286h102z" />
    <glyph glyph-name="eogonek.sc" horiz-adv-x="359" 
d="M167 218v-125h163v-93h-287v510h283v-92h-159v-110h147v-90h-147zM151 -158q-28 24 -28 62q0 25 12 46.5t39 47.5l18 16l94 4q-64 -51 -64 -91q0 -14 7 -21.5t19 -7.5t21.5 7t21.5 23l50 -46q-20 -32 -47 -48t-68 -16q-47 0 -75 24z" />
    <glyph glyph-name="eth.sc" horiz-adv-x="483" 
d="M355.5 478q48.5 -32 76 -90t27.5 -133t-27.5 -133t-76 -90t-110.5 -32h-168v225h-63v72h63v213h168q62 0 110.5 -32zM234 94q46 0 70.5 41t24.5 120q0 80 -24.5 121t-70.5 41h-33v-120h60v-72h-60v-131h33z" />
    <glyph glyph-name="uni1EBD.sc" horiz-adv-x="359" 
d="M167 218v-125h163v-93h-287v510h283v-92h-159v-110h147v-90h-147zM198.5 579.5q-15.5 7.5 -30.5 19.5q-8 5 -16 9.5t-14 4.5q-25 0 -29 -36h-61q3 66 29.5 91.5t60.5 25.5q20 0 34.5 -6.5t30.5 -18.5q20 -16 31 -16q23 0 28 36h61q-3 -65 -29 -91t-61 -26
q-19 0 -34.5 7.5z" />
    <glyph glyph-name="f.sc" horiz-adv-x="349" 
d="M322 510v-92h-155v-124h141v-91h-141v-203h-124v510h279z" />
    <glyph glyph-name="g.sc" horiz-adv-x="438" 
d="M227 273h180v-225q-33 -26 -79 -42.5t-89 -16.5q-100 0 -156.5 68t-56.5 198q0 129 56.5 197t148.5 68q65 0 111 -37t58 -101l-92 -23q-12 35 -29 49.5t-42 14.5q-81 0 -81 -168q0 -88 20 -128.5t64 -40.5q31 0 58 17v82h-71v88z" />
    <glyph glyph-name="gbreve.sc" horiz-adv-x="438" 
d="M227 273h180v-225q-33 -26 -79 -42.5t-89 -16.5q-100 0 -156.5 68t-56.5 198q0 129 56.5 197t148.5 68q65 0 111 -37t58 -101l-92 -23q-12 35 -29 49.5t-42 14.5q-81 0 -81 -168q0 -88 20 -128.5t64 -40.5q31 0 58 17v82h-71v88zM142 597.5q-33 33.5 -37 97.5h60
q14 -54 67 -54t67 54h60q-4 -64 -37 -97.5t-90 -33.5t-90 33.5z" />
    <glyph glyph-name="gcircumflex.sc" horiz-adv-x="438" 
d="M227 273h180v-225q-33 -26 -79 -42.5t-89 -16.5q-100 0 -156.5 68t-56.5 198q0 129 56.5 197t148.5 68q65 0 111 -37t58 -101l-92 -23q-12 35 -29 49.5t-42 14.5q-81 0 -81 -168q0 -88 20 -128.5t64 -40.5q31 0 58 17v82h-71v88zM278 695l88 -125h-63l-71 52l-71 -52h-63
l89 125h91z" />
    <glyph glyph-name="uni0123.sc" horiz-adv-x="438" 
d="M227 273h180v-225q-33 -26 -79 -42.5t-89 -16.5q-100 0 -156.5 68t-56.5 198q0 129 56.5 197t148.5 68q65 0 111 -37t58 -101l-92 -23q-12 35 -29 49.5t-42 14.5q-81 0 -81 -168q0 -88 20 -128.5t64 -40.5q31 0 58 17v82h-71v88zM183 -173q33 2 50 15.5t17 26.5v1
q-5 -1 -15 -1q-25 0 -41 12.5t-16 33.5q0 23 16 35.5t43 12.5q31 0 49 -19t18 -48q0 -51 -31.5 -77.5t-89.5 -28.5v37z" />
    <glyph glyph-name="gdotaccent.sc" horiz-adv-x="438" 
d="M227 273h180v-225q-33 -26 -79 -42.5t-89 -16.5q-100 0 -156.5 68t-56.5 198q0 129 56.5 197t148.5 68q65 0 111 -37t58 -101l-92 -23q-12 35 -29 49.5t-42 14.5q-81 0 -81 -168q0 -88 20 -128.5t64 -40.5q31 0 58 17v82h-71v88zM179 586.5q-21 19.5 -21 50.5q0 32 21 52
t53 20q33 0 54 -20t21 -52q0 -31 -21 -50.5t-54 -19.5q-32 0 -53 19.5z" />
    <glyph glyph-name="germandbls.sc" horiz-adv-x="765" 
d="M100 154q12 -32 35.5 -50.5t49.5 -18.5q24 0 39 11t15 33q0 19 -17 34.5t-45 31.5l-45 25q-53 30 -77.5 67.5t-24.5 87.5q0 63 42 104t114 41q57 0 98.5 -27t67.5 -85l-88 -41q-11 28 -29 43t-40 15q-18 0 -30 -10t-12 -29q0 -22 14 -35t48 -33l46 -25q47 -27 73.5 -59
t26.5 -89q0 -71 -48 -113t-125 -42q-54 0 -103.5 30t-68.5 90zM482 154q12 -32 35.5 -50.5t49.5 -18.5q24 0 39 11t15 33q0 19 -17 34.5t-45 31.5l-45 25q-53 30 -77.5 67.5t-24.5 87.5q0 63 42 104t114 41q57 0 98.5 -27t67.5 -85l-88 -41q-11 28 -29 43t-40 15
q-18 0 -30 -10t-12 -29q0 -22 14 -35t48 -33l46 -25q47 -27 73.5 -59t26.5 -89q0 -71 -48 -113t-125 -42q-54 0 -103.5 30t-68.5 90z" />
    <glyph glyph-name="h.sc" horiz-adv-x="438" 
d="M271 308v202h124v-510h-124v215h-104v-215h-124v510h124v-202h104z" />
    <glyph glyph-name="hbar.sc" horiz-adv-x="490" 
d="M421 454h59v-72h-59v-382h-124v207h-104v-207h-124v382h-59v72h59v56h124v-56h104v56h124v-56zM193 297h104v85h-104v-85z" />
    <glyph glyph-name="hcircumflex.sc" horiz-adv-x="438" 
d="M271 308v202h124v-510h-124v215h-104v-215h-124v510h124v-202h104zM265 695l88 -125h-63l-71 52l-71 -52h-63l89 125h91z" />
    <glyph glyph-name="i.sc" horiz-adv-x="211" 
d="M43 0v510h124v-510h-124z" />
    <glyph glyph-name="iacute.sc" horiz-adv-x="211" 
d="M113 570h-63l60 125h130v-11zM43 0v510h124v-510h-124z" />
    <glyph glyph-name="ibreve.sc" horiz-adv-x="211" 
d="M23 597.5q-29 33.5 -34 97.5h60q4 -27 19.5 -40.5t36.5 -13.5q22 0 37 13t19 41h60q-4 -64 -33.5 -97.5t-82.5 -33.5t-82 33.5zM43 0v510h124v-510h-124z" />
    <glyph glyph-name="uni01D0.sc" horiz-adv-x="211" 
d="M231 695l-80 -125h-91l-81 125h62l64 -56l64 56h62zM167 0h-124v510h124v-510z" />
    <glyph glyph-name="icircumflex.sc" horiz-adv-x="211" 
d="M60 695h91l80 -125h-62l-64 56l-64 -56h-62zM167 0h-124v510h124v-510z" />
    <glyph glyph-name="idieresis.sc" horiz-adv-x="211" 
d="M-16 582.5q-17 17.5 -17 45.5q0 29 17 46.5t44 17.5t44 -17.5t17 -46.5q0 -28 -17 -45.5t-44 -17.5t-44 17.5zM139 582.5q-17 17.5 -17 45.5q0 29 17 46.5t43 17.5q27 0 44.5 -17.5t17.5 -46.5q0 -28 -17.5 -45.5t-44.5 -17.5q-26 0 -43 17.5zM43 0v510h124v-510h-124z
" />
    <glyph glyph-name="i.sc.loclTRK" horiz-adv-x="211" 
d="M43 0v510h124v-510h-124zM52 586.5q-21 19.5 -21 50.5q0 32 21 52t53 20q33 0 54 -20t21 -52q0 -31 -21 -50.5t-54 -19.5q-32 0 -53 19.5z" />
    <glyph glyph-name="dotlessi.sc" horiz-adv-x="211" 
d="M43 0v510h124v-510h-124z" />
    <glyph glyph-name="igrave.sc" horiz-adv-x="211" 
d="M101 695l60 -125h-64l-126 114v11h130zM43 0v510h124v-510h-124z" />
    <glyph glyph-name="imacron.sc" horiz-adv-x="211" 
d="M213 583h-215v87h215v-87zM43 0v510h124v-510h-124z" />
    <glyph glyph-name="iogonek.sc" horiz-adv-x="211" 
d="M196 -118q-19 -32 -44 -48t-64 -16q-46 0 -74 24t-28 63q0 24 13 46t37 45l7 7v507h124v-510h-39q-42 -42 -42 -77q0 -12 6 -18.5t15 -6.5q19 0 37 30z" />
    <glyph glyph-name="itilde.sc" horiz-adv-x="211" 
d="M121.5 578q-12.5 6 -27.5 19q-18 16 -31 16q-18 0 -22 -36h-59q5 117 75 117q33 0 60 -25q21 -16 31 -16q17 0 22 36h59q-3 -64 -25.5 -90.5t-50.5 -26.5q-19 0 -31.5 6zM43 0v510h124v-510h-124z" />
    <glyph glyph-name="j.sc" horiz-adv-x="260" 
d="M9 -83v98q18 -5 35 -5q49 0 49 53v447h123v-461q0 -70 -37 -104.5t-106 -34.5q-35 0 -64 7z" />
    <glyph glyph-name="uni006A0301.sc" horiz-adv-x="260" 
d="M165 570h-63l60 125h130v-11zM9 -83v98q18 -5 35 -5q49 0 49 53v447h123v-461q0 -70 -37 -104.5t-106 -34.5q-35 0 -64 7z" />
    <glyph glyph-name="jcircumflex.sc" horiz-adv-x="260" 
d="M113 695h91l80 -125h-62l-64 56l-64 -56h-62zM93 510h123v-461q0 -70 -37 -104.5t-106 -34.5q-35 0 -64 7v98q18 -5 35 -5q49 0 49 53v447z" />
    <glyph glyph-name="uni0237.sc" horiz-adv-x="260" 
d="M9 -83v98q18 -5 35 -5q49 0 49 53v447h123v-461q0 -70 -37 -104.5t-106 -34.5q-35 0 -64 7z" />
    <glyph glyph-name="k.sc" horiz-adv-x="423" 
d="M425 0h-138l-103 225h-17v-225h-124v510h124v-200h16l120 200h112l-136 -217z" />
    <glyph glyph-name="uni0137.sc" horiz-adv-x="423" 
d="M425 0h-138l-103 225h-17v-225h-124v510h124v-200h16l120 200h112l-136 -217zM170 -173q33 2 50 15.5t17 26.5v1q-5 -1 -15 -1q-25 0 -41 12.5t-16 33.5q0 23 16 35.5t43 12.5q31 0 49 -19t18 -48q0 -51 -31.5 -77.5t-89.5 -28.5v37z" />
    <glyph glyph-name="l.sc" horiz-adv-x="339" 
d="M167 510v-417h155v-93h-279v510h124z" />
    <glyph glyph-name="l_periodcentered.latnCAT.sc" horiz-adv-x="372" 
d="M43 510h124v-417h155v-93h-279v510zM340 338q19 -19 19 -50q0 -29 -19 -48t-49 -19t-49.5 19t-19.5 48q0 31 19.5 50t49.5 19t49 -19z" />
    <glyph glyph-name="lacute.sc" horiz-adv-x="339" 
d="M167 510v-417h155v-93h-279v510h124zM105 570h-63l70 125h134v-11z" />
    <glyph glyph-name="lcaron.sc" horiz-adv-x="356" 
d="M43 510h124v-417h155v-93h-279v510zM225 322l9 188h92v-10l-39 -178h-62z" />
    <glyph glyph-name="uni013C.sc" horiz-adv-x="339" 
d="M167 510v-417h155v-93h-279v510h124zM130 -173q33 2 50 15.5t17 26.5v1q-5 -1 -15 -1q-25 0 -41 12.5t-16 33.5q0 23 16 35.5t43 12.5q31 0 49 -19t18 -48q0 -51 -31.5 -77.5t-89.5 -28.5v37z" />
    <glyph glyph-name="ldot.sc" horiz-adv-x="372" 
d="M43 510h124v-417h155v-93h-279v510zM340 338q19 -19 19 -50q0 -29 -19 -48t-49 -19t-49.5 19t-19.5 48q0 31 19.5 50t49.5 19t49 -19z" />
    <glyph glyph-name="uni01C9.sc" horiz-adv-x="599" 
d="M167 510v-417h155v-93h-279v510h124zM348 -83v98q18 -5 35 -5q49 0 49 53v447h123v-461q0 -70 -37 -104.5t-106 -34.5q-35 0 -64 7z" />
    <glyph glyph-name="lslash.sc" horiz-adv-x="372" 
d="M200 247v-154h155v-93h-279v198l-57 -27v79l57 26v234h124v-186l79 37v-79z" />
    <glyph glyph-name="m.sc" horiz-adv-x="559" 
d="M284 168l58 342h174v-510h-113v391l-77 -391h-105l-79 381v-381h-99v510h181z" />
    <glyph glyph-name="n.sc" horiz-adv-x="449" 
d="M304 182v328h102v-510h-152l-109 331v-331h-102v510h156z" />
    <glyph glyph-name="nacute.sc" horiz-adv-x="449" 
d="M304 182v328h102v-510h-152l-109 331v-331h-102v510h156zM230 570h-63l70 125h134v-11z" />
    <glyph glyph-name="ncaron.sc" horiz-adv-x="449" 
d="M304 182v328h102v-510h-152l-109 331v-331h-102v510h156zM225 643l71 52h63l-88 -125h-91l-89 125h63z" />
    <glyph glyph-name="uni0146.sc" horiz-adv-x="449" 
d="M304 182v328h102v-510h-152l-109 331v-331h-102v510h156zM170 -173q33 2 50 15.5t17 26.5v1q-5 -1 -15 -1q-25 0 -41 12.5t-16 33.5q0 23 16 35.5t43 12.5q31 0 49 -19t18 -48q0 -51 -31.5 -77.5t-89.5 -28.5v37z" />
    <glyph glyph-name="ntilde.sc" horiz-adv-x="449" 
d="M304 182v328h102v-510h-152l-109 331v-331h-102v510h156zM237.5 579.5q-15.5 7.5 -30.5 19.5q-8 5 -16 9.5t-14 4.5q-25 0 -29 -36h-61q3 66 29.5 91.5t60.5 25.5q20 0 34.5 -6.5t30.5 -18.5q20 -16 31 -16q23 0 28 36h61q-3 -65 -29 -91t-61 -26q-19 0 -34.5 7.5z" />
    <glyph glyph-name="uni01CC.sc" horiz-adv-x="709" 
d="M304 182v328h102v-510h-152l-109 331v-331h-102v510h156zM458 -83v98q18 -5 35 -5q49 0 49 53v447h123v-461q0 -70 -37 -104.5t-106 -34.5q-35 0 -64 7z" />
    <glyph glyph-name="o.sc" horiz-adv-x="460" 
d="M123 20.5q-46 30.5 -71.5 90.5t-25.5 144q0 127 56 196t148 69t148 -69t56 -196q0 -84 -26 -144t-72 -90.5t-106 -30.5q-61 0 -107 30.5zM304 255q0 168 -74 168q-37 0 -56 -40t-19 -128t19 -128t56 -40q74 0 74 168z" />
    <glyph glyph-name="oacute.sc" horiz-adv-x="460" 
d="M123 20.5q-46 30.5 -71.5 90.5t-25.5 144q0 127 56 196t148 69t148 -69t56 -196q0 -84 -26 -144t-72 -90.5t-106 -30.5q-61 0 -107 30.5zM304 255q0 168 -74 168q-37 0 -56 -40t-19 -128t19 -128t56 -40q74 0 74 168zM235 570h-63l70 125h134v-11z" />
    <glyph glyph-name="obreve.sc" horiz-adv-x="460" 
d="M123 20.5q-46 30.5 -71.5 90.5t-25.5 144q0 127 56 196t148 69t148 -69t56 -196q0 -84 -26 -144t-72 -90.5t-106 -30.5q-61 0 -107 30.5zM304 255q0 168 -74 168q-37 0 -56 -40t-19 -128t19 -128t56 -40q74 0 74 168zM140 597.5q-33 33.5 -37 97.5h60q14 -54 67 -54
t67 54h60q-4 -64 -37 -97.5t-90 -33.5t-90 33.5z" />
    <glyph glyph-name="uni01D2.sc" horiz-adv-x="460" 
d="M123 20.5q-46 30.5 -71.5 90.5t-25.5 144q0 127 56 196t148 69t148 -69t56 -196q0 -84 -26 -144t-72 -90.5t-106 -30.5q-61 0 -107 30.5zM304 255q0 168 -74 168q-37 0 -56 -40t-19 -128t19 -128t56 -40q74 0 74 168zM230 643l71 52h63l-88 -125h-91l-89 125h63z" />
    <glyph glyph-name="ocircumflex.sc" horiz-adv-x="460" 
d="M123 20.5q-46 30.5 -71.5 90.5t-25.5 144q0 127 56 196t148 69t148 -69t56 -196q0 -84 -26 -144t-72 -90.5t-106 -30.5q-61 0 -107 30.5zM304 255q0 168 -74 168q-37 0 -56 -40t-19 -128t19 -128t56 -40q74 0 74 168zM276 695l88 -125h-63l-71 52l-71 -52h-63l89 125h91z
" />
    <glyph glyph-name="odieresis.sc" horiz-adv-x="460" 
d="M123 20.5q-46 30.5 -71.5 90.5t-25.5 144q0 127 56 196t148 69t148 -69t56 -196q0 -84 -26 -144t-72 -90.5t-106 -30.5q-61 0 -107 30.5zM304 255q0 168 -74 168q-37 0 -56 -40t-19 -128t19 -128t56 -40q74 0 74 168zM98 582.5q-18 17.5 -18 45.5q0 29 18 46.5t47 17.5
t47 -17.5t18 -46.5q0 -28 -18 -45.5t-47 -17.5t-47 17.5zM267 582.5q-18 17.5 -18 45.5q0 29 18 46.5t46 17.5q29 0 47.5 -17.5t18.5 -46.5q0 -28 -18.5 -45.5t-47.5 -17.5q-28 0 -46 17.5z" />
    <glyph glyph-name="oe.sc" horiz-adv-x="607" 
d="M421 93h157v-93h-274v55q-35 -64 -104 -64q-50 0 -89 30t-61.5 89.5t-22.5 144.5t22.5 145t61.5 90t89 30q69 0 104 -65v55h270v-92h-153v-109h141v-92h-141v-124zM299 255q0 87 -18.5 128t-51.5 41q-36 0 -54.5 -40t-18.5 -129q0 -87 18.5 -127t54.5 -40q70 0 70 167z
" />
    <glyph glyph-name="ograve.sc" horiz-adv-x="460" 
d="M123 20.5q-46 30.5 -71.5 90.5t-25.5 144q0 127 56 196t148 69t148 -69t56 -196q0 -84 -26 -144t-72 -90.5t-106 -30.5q-61 0 -107 30.5zM304 255q0 168 -74 168q-37 0 -56 -40t-19 -128t19 -128t56 -40q74 0 74 168zM217 695l70 -125h-64l-140 114v11h134z" />
    <glyph glyph-name="ohungarumlaut.sc" horiz-adv-x="460" 
d="M123 20.5q-46 30.5 -71.5 90.5t-25.5 144q0 127 56 196t148 69t148 -69t56 -196q0 -84 -26 -144t-72 -90.5t-106 -30.5q-61 0 -107 30.5zM304 255q0 168 -74 168q-37 0 -56 -40t-19 -128t19 -128t56 -40q74 0 74 168zM178 570h-58l42 125h117v-11zM324 570h-61l61 125
h115v-11z" />
    <glyph glyph-name="omacron.sc" horiz-adv-x="460" 
d="M123 20.5q-46 30.5 -71.5 90.5t-25.5 144q0 127 56 196t148 69t148 -69t56 -196q0 -84 -26 -144t-72 -90.5t-106 -30.5q-61 0 -107 30.5zM304 255q0 168 -74 168q-37 0 -56 -40t-19 -128t19 -128t56 -40q74 0 74 168zM353 583h-246v87h246v-87z" />
    <glyph glyph-name="oslash.sc" horiz-adv-x="461" 
d="M394 429q41 -68 41 -174q0 -84 -26 -144t-72 -90.5t-106 -30.5q-64 0 -113 35l-30 -45l-59 37l40 61q-43 70 -43 177q0 85 26 144.5t72 90t107 30.5q68 0 115 -37l29 44l59 -38zM174 383q-19 -40 -19 -128q0 -21 2 -53l125 188q-17 33 -51 33q-38 0 -57 -40zM305 255
q0 29 -1 42l-122 -183q17 -27 49 -27q74 0 74 168z" />
    <glyph glyph-name="otilde.sc" horiz-adv-x="460" 
d="M123 20.5q-46 30.5 -71.5 90.5t-25.5 144q0 127 56 196t148 69t148 -69t56 -196q0 -84 -26 -144t-72 -90.5t-106 -30.5q-61 0 -107 30.5zM304 255q0 168 -74 168q-37 0 -56 -40t-19 -128t19 -128t56 -40q74 0 74 168zM242.5 579.5q-15.5 7.5 -30.5 19.5q-8 5 -16 9.5
t-14 4.5q-25 0 -29 -36h-61q3 66 29.5 91.5t60.5 25.5q20 0 34.5 -6.5t30.5 -18.5q20 -16 31 -16q23 0 28 36h61q-3 -65 -29 -91t-61 -26q-19 0 -34.5 7.5z" />
    <glyph glyph-name="p.sc" horiz-adv-x="400" 
d="M329.5 466q50.5 -44 50.5 -122q0 -79 -50 -124t-131 -45h-32v-175h-124v510h156q80 0 130.5 -44zM191 268q31 0 45 18.5t14 56.5t-14 56.5t-45 18.5h-24v-150h24z" />
    <glyph glyph-name="q.sc" horiz-adv-x="461" 
d="M458 -69h-148l-47 62q-15 -3 -33 -3q-61 0 -107 30.5t-71.5 90.5t-25.5 144q0 127 56 196t148 69t148 -69t56 -196q0 -68 -17.5 -120.5t-49.5 -87.5zM174 127q19 -40 56 -40q74 0 74 168t-74 168q-37 0 -56 -40t-19 -128t19 -128z" />
    <glyph glyph-name="r.sc" horiz-adv-x="413" 
d="M408 0h-133l-83 200l-1 -1h-25v-199h-123v510h156q75 0 124.5 -41t49.5 -114q0 -45 -18.5 -77t-52.5 -51zM166 418v-146h24q26 0 40.5 19.5t14.5 58.5q0 32 -13 50t-38 18h-28z" />
    <glyph glyph-name="racute.sc" horiz-adv-x="413" 
d="M408 0h-133l-83 200l-1 -1h-25v-199h-123v510h156q75 0 124.5 -41t49.5 -114q0 -45 -18.5 -77t-52.5 -51zM166 418v-146h24q26 0 40.5 19.5t14.5 58.5q0 32 -13 50t-38 18h-28zM200 570h-63l70 125h134v-11z" />
    <glyph glyph-name="rcaron.sc" horiz-adv-x="413" 
d="M408 0h-133l-83 200l-1 -1h-25v-199h-123v510h156q75 0 124.5 -41t49.5 -114q0 -45 -18.5 -77t-52.5 -51zM166 418v-146h24q26 0 40.5 19.5t14.5 58.5q0 32 -13 50t-38 18h-28zM195 643l71 52h63l-88 -125h-91l-89 125h63z" />
    <glyph glyph-name="uni0157.sc" horiz-adv-x="413" 
d="M408 0h-133l-83 200l-1 -1h-25v-199h-123v510h156q75 0 124.5 -41t49.5 -114q0 -45 -18.5 -77t-52.5 -51zM166 418v-146h24q26 0 40.5 19.5t14.5 58.5q0 32 -13 50t-38 18h-28zM159 -173q33 2 50 15.5t17 26.5v1q-5 -1 -15 -1q-25 0 -41 12.5t-16 33.5q0 23 16 35.5
t43 12.5q31 0 49 -19t18 -48q0 -51 -31.5 -77.5t-89.5 -28.5v37z" />
    <glyph glyph-name="s.sc" horiz-adv-x="382" 
d="M100 154q12 -32 35.5 -50.5t49.5 -18.5q24 0 39 11t15 33q0 19 -17 34.5t-45 31.5l-45 25q-53 30 -77.5 67.5t-24.5 87.5q0 63 42 104t114 41q57 0 98.5 -27t67.5 -85l-88 -41q-11 28 -29 43t-40 15q-18 0 -30 -10t-12 -29q0 -22 14 -35t48 -33l46 -25q47 -27 73.5 -59
t26.5 -89q0 -71 -48 -113t-125 -42q-54 0 -103.5 30t-68.5 90z" />
    <glyph glyph-name="sacute.sc" horiz-adv-x="382" 
d="M100 154q12 -32 35.5 -50.5t49.5 -18.5q24 0 39 11t15 33q0 19 -17 34.5t-45 31.5l-45 25q-53 30 -77.5 67.5t-24.5 87.5q0 63 42 104t114 41q57 0 98.5 -27t67.5 -85l-88 -41q-11 28 -29 43t-40 15q-18 0 -30 -10t-12 -29q0 -22 14 -35t48 -33l46 -25q47 -27 73.5 -59
t26.5 -89q0 -71 -48 -113t-125 -42q-54 0 -103.5 30t-68.5 90zM197 570h-63l70 125h134v-11z" />
    <glyph glyph-name="scaron.sc" horiz-adv-x="382" 
d="M100 154q12 -32 35.5 -50.5t49.5 -18.5q24 0 39 11t15 33q0 19 -17 34.5t-45 31.5l-45 25q-53 30 -77.5 67.5t-24.5 87.5q0 63 42 104t114 41q57 0 98.5 -27t67.5 -85l-88 -41q-11 28 -29 43t-40 15q-18 0 -30 -10t-12 -29q0 -22 14 -35t48 -33l46 -25q47 -27 73.5 -59
t26.5 -89q0 -71 -48 -113t-125 -42q-54 0 -103.5 30t-68.5 90zM191 643l71 52h63l-88 -125h-91l-89 125h63z" />
    <glyph glyph-name="scedilla.sc" horiz-adv-x="382" 
d="M100 154q12 -32 35.5 -50.5t49.5 -18.5q24 0 39 11t15 33q0 19 -17 34.5t-45 31.5l-45 25q-53 30 -77.5 67.5t-24.5 87.5q0 63 42 104t114 41q57 0 98.5 -27t67.5 -85l-88 -41q-11 28 -29 43t-40 15q-18 0 -30 -10t-12 -29q0 -22 14 -35t48 -33l46 -25q47 -27 73.5 -59
t26.5 -89q0 -71 -48 -113t-125 -42q-54 0 -103.5 30t-68.5 90zM274 -58q22 -18 22 -48q0 -36 -28.5 -56t-73.5 -20q-46 0 -75 19l19 48q19 -13 40 -13q12 0 20.5 6.5t8.5 18.5q0 11 -6.5 17.5t-18.5 6.5t-23 -9l-23 14l54 96h51l-38 -63q4 1 12 1q37 0 59 -18z" />
    <glyph glyph-name="uni0259.sc" horiz-adv-x="438" 
d="M357.5 452.5q54.5 -67.5 54.5 -196.5q0 -132 -52 -199t-145 -67q-92 0 -141.5 66.5t-49.5 193.5q0 17 3 38h259q-3 73 -27 104.5t-59 31.5q-26 0 -43 -15.5t-32 -44.5l-86 42q20 51 64.5 82.5t106.5 31.5q93 0 147.5 -67.5zM264.5 110.5q17.5 24.5 20.5 90.5h-142
q2 -62 23.5 -88.5t52.5 -26.5q28 0 45.5 24.5z" />
    <glyph glyph-name="scircumflex.sc" horiz-adv-x="382" 
d="M100 154q12 -32 35.5 -50.5t49.5 -18.5q24 0 39 11t15 33q0 19 -17 34.5t-45 31.5l-45 25q-53 30 -77.5 67.5t-24.5 87.5q0 63 42 104t114 41q57 0 98.5 -27t67.5 -85l-88 -41q-11 28 -29 43t-40 15q-18 0 -30 -10t-12 -29q0 -22 14 -35t48 -33l46 -25q47 -27 73.5 -59
t26.5 -89q0 -71 -48 -113t-125 -42q-54 0 -103.5 30t-68.5 90zM237 695l88 -125h-63l-71 52l-71 -52h-63l89 125h91z" />
    <glyph glyph-name="uni0219.sc" horiz-adv-x="382" 
d="M100 154q12 -32 35.5 -50.5t49.5 -18.5q24 0 39 11t15 33q0 19 -17 34.5t-45 31.5l-45 25q-53 30 -77.5 67.5t-24.5 87.5q0 63 42 104t114 41q57 0 98.5 -27t67.5 -85l-88 -41q-11 28 -29 43t-40 15q-18 0 -30 -10t-12 -29q0 -22 14 -35t48 -33l46 -25q47 -27 73.5 -59
t26.5 -89q0 -71 -48 -113t-125 -42q-54 0 -103.5 30t-68.5 90zM153 -173q33 2 50 15.5t17 26.5v1q-5 -1 -15 -1q-25 0 -41 12.5t-16 33.5q0 23 16 35.5t43 12.5q31 0 49 -19t18 -48q0 -51 -31.5 -77.5t-89.5 -28.5v37z" />
    <glyph glyph-name="t.sc" horiz-adv-x="377" 
d="M361 510v-92h-110v-418h-124v418h-110v92h344z" />
    <glyph glyph-name="tbar.sc" horiz-adv-x="384" 
d="M364 510v-92h-110v-132h62v-72h-62v-214h-124v214h-61v72h61v132h-110v92h344z" />
    <glyph glyph-name="tcaron.sc" horiz-adv-x="377" 
d="M361 510v-92h-110v-418h-124v418h-110v92h344zM186 643l71 52h63l-88 -125h-91l-89 125h63z" />
    <glyph glyph-name="uni0163.sc" horiz-adv-x="377" 
d="M361 510v-92h-110v-418h-124v418h-110v92h344zM253 -58q22 -18 22 -48q0 -36 -28.5 -56t-73.5 -20q-46 0 -75 19l19 48q19 -13 40 -13q12 0 20.5 6.5t8.5 18.5q0 11 -6.5 17.5t-18.5 6.5t-23 -9l-23 14l54 96h51l-38 -63q4 1 12 1q37 0 59 -18z" />
    <glyph glyph-name="uni021B.sc" horiz-adv-x="377" 
d="M361 510v-92h-110v-418h-124v418h-110v92h344zM132 -173q33 2 50 15.5t17 26.5v1q-5 -1 -15 -1q-25 0 -41 12.5t-16 33.5q0 23 16 35.5t43 12.5q31 0 49 -19t18 -48q0 -51 -31.5 -77.5t-89.5 -28.5v37z" />
    <glyph glyph-name="thorn.sc" horiz-adv-x="401" 
d="M199 432q80 0 130.5 -44t50.5 -122q0 -79 -50 -124t-131 -45h-32v-97h-124v510h124v-78h32zM191 190q31 0 45 18.5t14 56.5t-14 56.5t-45 18.5h-24v-150h24z" />
    <glyph glyph-name="u.sc" horiz-adv-x="417" 
d="M87 30.5q-47 40.5 -47 117.5v362h124v-360q0 -63 54 -63q55 0 55 63v360h104v-362q0 -77 -46.5 -117.5t-121.5 -40.5t-122 40.5z" />
    <glyph glyph-name="uacute.sc" horiz-adv-x="417" 
d="M87 30.5q-47 40.5 -47 117.5v362h124v-360q0 -63 54 -63q55 0 55 63v360h104v-362q0 -77 -46.5 -117.5t-121.5 -40.5t-122 40.5zM221 570h-63l70 125h134v-11z" />
    <glyph glyph-name="ubreve.sc" horiz-adv-x="417" 
d="M87 30.5q-47 40.5 -47 117.5v362h124v-360q0 -63 54 -63q55 0 55 63v360h104v-362q0 -77 -46.5 -117.5t-121.5 -40.5t-122 40.5zM125 597.5q-33 33.5 -37 97.5h60q14 -54 67 -54t67 54h60q-4 -64 -37 -97.5t-90 -33.5t-90 33.5z" />
    <glyph glyph-name="uni01D4.sc" horiz-adv-x="417" 
d="M87 30.5q-47 40.5 -47 117.5v362h124v-360q0 -63 54 -63q55 0 55 63v360h104v-362q0 -77 -46.5 -117.5t-121.5 -40.5t-122 40.5zM215 643l71 52h63l-88 -125h-91l-89 125h63z" />
    <glyph glyph-name="ucircumflex.sc" horiz-adv-x="417" 
d="M87 30.5q-47 40.5 -47 117.5v362h124v-360q0 -63 54 -63q55 0 55 63v360h104v-362q0 -77 -46.5 -117.5t-121.5 -40.5t-122 40.5zM261 695l88 -125h-63l-71 52l-71 -52h-63l89 125h91z" />
    <glyph glyph-name="udieresis.sc" horiz-adv-x="417" 
d="M87 30.5q-47 40.5 -47 117.5v362h124v-360q0 -63 54 -63q55 0 55 63v360h104v-362q0 -77 -46.5 -117.5t-121.5 -40.5t-122 40.5zM84 582.5q-18 17.5 -18 45.5q0 29 18 46.5t47 17.5t47 -17.5t18 -46.5q0 -28 -18 -45.5t-47 -17.5t-47 17.5zM253 582.5q-18 17.5 -18 45.5
q0 29 18 46.5t46 17.5q29 0 47.5 -17.5t18.5 -46.5q0 -28 -18.5 -45.5t-47.5 -17.5q-28 0 -46 17.5z" />
    <glyph glyph-name="uni01D8.sc" horiz-adv-x="417" 
d="M87 30.5q-47 40.5 -47 117.5v362h124v-360q0 -63 54 -63q55 0 55 63v360h104v-362q0 -77 -46.5 -117.5t-121.5 -40.5t-122 40.5zM227 722h-63l70 125h134v-11zM83 575q-18 18 -18 46t18 46t47 18t47 -18t18 -46t-18 -46t-47 -18t-47 18zM253 575q-18 18 -18 46t18 46
t46 18q29 0 47.5 -18t18.5 -46t-18.5 -46t-47.5 -18q-28 0 -46 18z" />
    <glyph glyph-name="uni01DA.sc" horiz-adv-x="417" 
d="M87 30.5q-47 40.5 -47 117.5v362h124v-360q0 -63 54 -63q55 0 55 63v360h104v-362q0 -77 -46.5 -117.5t-121.5 -40.5t-122 40.5zM353 846l-88 -125h-91l-88 125h62l71 -53l71 53h63zM177 667q18 -18 18 -46t-18 -46t-47 -18t-47 18t-18 46t18 46t47 18t47 -18zM346.5 667
q18.5 -18 18.5 -46t-18.5 -46t-47.5 -18q-28 0 -46 18t-18 46t18 46t46 18q29 0 47.5 -18z" />
    <glyph glyph-name="uni01DC.sc" horiz-adv-x="417" 
d="M87 30.5q-47 40.5 -47 117.5v362h124v-360q0 -63 54 -63q55 0 55 63v360h104v-362q0 -77 -46.5 -117.5t-121.5 -40.5t-122 40.5zM196 847l71 -125h-64l-141 114v11h134zM84 575q-18 18 -18 46t18 46t47 18t47 -18t18 -46t-18 -46t-47 -18t-47 18zM253 575q-18 18 -18 46
t18 46t46 18q29 0 47.5 -18t18.5 -46t-18.5 -46t-47.5 -18q-28 0 -46 18z" />
    <glyph glyph-name="uni01D6.sc" horiz-adv-x="417" 
d="M87 30.5q-47 40.5 -47 117.5v362h124v-360q0 -63 54 -63q55 0 55 63v360h104v-362q0 -77 -46.5 -117.5t-121.5 -40.5t-122 40.5zM338 743h-246v86h246v-86zM83 575q-18 18 -18 46t18 46t47 18t47 -18t18 -46t-18 -46t-47 -18t-47 18zM253 575q-18 18 -18 46t18 46t46 18
q29 0 47.5 -18t18.5 -46t-18.5 -46t-47.5 -18q-28 0 -46 18z" />
    <glyph glyph-name="ugrave.sc" horiz-adv-x="417" 
d="M87 30.5q-47 40.5 -47 117.5v362h124v-360q0 -63 54 -63q55 0 55 63v360h104v-362q0 -77 -46.5 -117.5t-121.5 -40.5t-122 40.5zM202 695l70 -125h-64l-140 114v11h134z" />
    <glyph glyph-name="uhungarumlaut.sc" horiz-adv-x="417" 
d="M87 30.5q-47 40.5 -47 117.5v362h124v-360q0 -63 54 -63q55 0 55 63v360h104v-362q0 -77 -46.5 -117.5t-121.5 -40.5t-122 40.5zM163 570h-58l42 125h117v-11zM309 570h-61l61 125h115v-11z" />
    <glyph glyph-name="umacron.sc" horiz-adv-x="417" 
d="M87 30.5q-47 40.5 -47 117.5v362h124v-360q0 -63 54 -63q55 0 55 63v360h104v-362q0 -77 -46.5 -117.5t-121.5 -40.5t-122 40.5zM338 583h-246v87h246v-87z" />
    <glyph glyph-name="uogonek.sc" horiz-adv-x="417" 
d="M87 30.5q-47 40.5 -47 117.5v362h124v-360q0 -63 54 -63q55 0 55 63v360h104v-362q0 -77 -46.5 -117.5t-121.5 -40.5t-122 40.5zM179 -158q-28 24 -28 62q0 25 12 46.5t39 47.5l18 16l94 4q-64 -51 -64 -91q0 -14 7 -21.5t19 -7.5t21.5 7t21.5 23l50 -46q-20 -32 -47 -48
t-68 -16q-47 0 -75 24z" />
    <glyph glyph-name="uring.sc" horiz-adv-x="417" 
d="M87 30.5q-47 40.5 -47 117.5v362h124v-360q0 -63 54 -63q55 0 55 63v360h104v-362q0 -77 -46.5 -117.5t-121.5 -40.5t-122 40.5zM132 597q-32 29 -32 73q0 43 32 72.5t82 29.5t82.5 -29.5t32.5 -72.5q0 -44 -32.5 -73t-82.5 -29t-82 29zM242.5 642q11.5 11 11.5 28
t-11 28t-29 11q-17 0 -27.5 -11.5t-10.5 -27.5q0 -17 10.5 -28t27.5 -11t28.5 11z" />
    <glyph glyph-name="utilde.sc" horiz-adv-x="417" 
d="M87 30.5q-47 40.5 -47 117.5v362h124v-360q0 -63 54 -63q55 0 55 63v360h104v-362q0 -77 -46.5 -117.5t-121.5 -40.5t-122 40.5zM227.5 579.5q-15.5 7.5 -30.5 19.5q-8 5 -16 9.5t-14 4.5q-25 0 -29 -36h-61q3 66 29.5 91.5t60.5 25.5q20 0 34.5 -6.5t30.5 -18.5
q20 -16 31 -16q23 0 28 36h61q-3 -65 -29 -91t-61 -26q-19 0 -34.5 7.5z" />
    <glyph glyph-name="v.sc" horiz-adv-x="420" 
d="M220 138l83 372h110l-137 -510h-132l-139 510h137z" />
    <glyph glyph-name="w.sc" horiz-adv-x="645" 
d="M467 149l58 361h110l-109 -510h-141l-70 356l-63 -356h-133l-109 510h133l61 -355l62 355h135z" />
    <glyph glyph-name="wacute.sc" horiz-adv-x="645" 
d="M467 149l58 361h110l-109 -510h-141l-70 356l-63 -356h-133l-109 510h133l61 -355l62 355h135zM338 570h-63l70 125h134v-11z" />
    <glyph glyph-name="wcircumflex.sc" horiz-adv-x="645" 
d="M467 149l58 361h110l-109 -510h-141l-70 356l-63 -356h-133l-109 510h133l61 -355l62 355h135zM379 695l88 -125h-63l-71 52l-71 -52h-63l89 125h91z" />
    <glyph glyph-name="wdieresis.sc" horiz-adv-x="645" 
d="M467 149l58 361h110l-109 -510h-141l-70 356l-63 -356h-133l-109 510h133l61 -355l62 355h135zM201 582.5q-18 17.5 -18 45.5q0 29 18 46.5t47 17.5t47 -17.5t18 -46.5q0 -28 -18 -45.5t-47 -17.5t-47 17.5zM370 582.5q-18 17.5 -18 45.5q0 29 18 46.5t46 17.5
q29 0 47.5 -17.5t18.5 -46.5q0 -28 -18.5 -45.5t-47.5 -17.5q-28 0 -46 17.5z" />
    <glyph glyph-name="wgrave.sc" horiz-adv-x="645" 
d="M467 149l58 361h110l-109 -510h-141l-70 356l-63 -356h-133l-109 510h133l61 -355l62 355h135zM320 695l70 -125h-64l-140 114v11h134z" />
    <glyph glyph-name="x.sc" horiz-adv-x="406" 
d="M270 269l136 -269h-134l-76 158l-81 -158h-111l135 252l-132 258h133l70 -150l74 150h109z" />
    <glyph glyph-name="y.sc" horiz-adv-x="419" 
d="M300 510h116l-145 -293v-217h-123v217l-145 293h136l81 -193z" />
    <glyph glyph-name="yacute.sc" horiz-adv-x="419" 
d="M300 510h116l-145 -293v-217h-123v217l-145 293h136l81 -193zM224 570h-63l70 125h134v-11z" />
    <glyph glyph-name="ycircumflex.sc" horiz-adv-x="419" 
d="M300 510h116l-145 -293v-217h-123v217l-145 293h136l81 -193zM265 695l88 -125h-63l-71 52l-71 -52h-63l89 125h91z" />
    <glyph glyph-name="ydieresis.sc" horiz-adv-x="419" 
d="M300 510h116l-145 -293v-217h-123v217l-145 293h136l81 -193zM87 582.5q-18 17.5 -18 45.5q0 29 18 46.5t47 17.5t47 -17.5t18 -46.5q0 -28 -18 -45.5t-47 -17.5t-47 17.5zM256 582.5q-18 17.5 -18 45.5q0 29 18 46.5t46 17.5q29 0 47.5 -17.5t18.5 -46.5
q0 -28 -18.5 -45.5t-47.5 -17.5q-28 0 -46 17.5z" />
    <glyph glyph-name="ygrave.sc" horiz-adv-x="419" 
d="M300 510h116l-145 -293v-217h-123v217l-145 293h136l81 -193zM206 695l70 -125h-64l-140 114v11h134z" />
    <glyph glyph-name="uni0233.sc" horiz-adv-x="419" 
d="M300 510h116l-145 -293v-217h-123v217l-145 293h136l81 -193zM342 583h-246v87h246v-87z" />
    <glyph glyph-name="uni1EF9.sc" horiz-adv-x="419" 
d="M300 510h116l-145 -293v-217h-123v217l-145 293h136l81 -193zM231.5 579.5q-15.5 7.5 -30.5 19.5q-8 5 -16 9.5t-14 4.5q-25 0 -29 -36h-61q3 66 29.5 91.5t60.5 25.5q20 0 34.5 -6.5t30.5 -18.5q20 -16 31 -16q23 0 28 36h61q-3 -65 -29 -91t-61 -26q-19 0 -34.5 7.5z
" />
    <glyph glyph-name="z.sc" horiz-adv-x="366" 
d="M342 420l-187 -327h188v-93h-324v91l187 327h-175v92h311v-90z" />
    <glyph glyph-name="zacute.sc" horiz-adv-x="366" 
d="M342 420l-187 -327h188v-93h-324v91l187 327h-175v92h311v-90zM188 570h-63l70 125h134v-11z" />
    <glyph glyph-name="zcaron.sc" horiz-adv-x="366" 
d="M342 420l-187 -327h188v-93h-324v91l187 327h-175v92h311v-90zM183 643l71 52h63l-88 -125h-91l-89 125h63z" />
    <glyph glyph-name="zdotaccent.sc" horiz-adv-x="366" 
d="M342 420l-187 -327h188v-93h-324v91l187 327h-175v92h311v-90zM129 586.5q-21 19.5 -21 50.5q0 32 21 52t53 20q33 0 54 -20t21 -52q0 -31 -21 -50.5t-54 -19.5q-32 0 -53 19.5z" />
    <glyph glyph-name="uni01F1.c2sc" horiz-adv-x="805" 
d="M321.5 478q48.5 -32 76 -90t27.5 -133t-27.5 -133t-76 -90t-110.5 -32h-168v510h168q62 0 110.5 -32zM200 94q46 0 70.5 41t24.5 120q0 80 -24.5 121t-70.5 41h-33v-323h33zM781 420l-187 -327h188v-93h-324v91l187 327h-175v92h311v-90z" />
    <glyph glyph-name="uni01C4.c2sc" horiz-adv-x="805" 
d="M321.5 478q48.5 -32 76 -90t27.5 -133t-27.5 -133t-76 -90t-110.5 -32h-168v510h168q62 0 110.5 -32zM200 94q46 0 70.5 41t24.5 120q0 80 -24.5 121t-70.5 41h-33v-323h33zM781 420l-187 -327h188v-93h-324v91l187 327h-175v92h311v-90zM622 643l71 52h63l-88 -125h-91
l-89 125h63z" />
    <glyph glyph-name="uni01F2.c2sc" horiz-adv-x="805" 
d="M321.5 478q48.5 -32 76 -90t27.5 -133t-27.5 -133t-76 -90t-110.5 -32h-168v510h168q62 0 110.5 -32zM200 94q46 0 70.5 41t24.5 120q0 80 -24.5 121t-70.5 41h-33v-323h33zM781 420l-187 -327h188v-93h-324v91l187 327h-175v92h311v-90z" />
    <glyph glyph-name="uni01C5.c2sc" horiz-adv-x="805" 
d="M321.5 478q48.5 -32 76 -90t27.5 -133t-27.5 -133t-76 -90t-110.5 -32h-168v510h168q62 0 110.5 -32zM200 94q46 0 70.5 41t24.5 120q0 80 -24.5 121t-70.5 41h-33v-323h33zM781 420l-187 -327h188v-93h-324v91l187 327h-175v92h311v-90zM622 643l71 52h63l-88 -125h-91
l-89 125h63z" />
    <glyph glyph-name="uni1E9E.c2sc" horiz-adv-x="443" 
d="M335 278q39 -29 62.5 -63t23.5 -81q0 -68 -44.5 -106t-112.5 -38q-45 0 -75 18l27 84q19 -7 34 -7q21 0 33 12.5t12 34.5q0 20 -13 37t-42 35l-29 19v47l74 137q-26 19 -59 19q-66 0 -66 -101v-325h-120v331q0 189 187 189q101 0 187 -69l-92 -163z" />
    <glyph glyph-name="Idotaccent.c2sc" horiz-adv-x="211" 
d="M43 0v510h124v-510h-124zM52 586.5q-21 19.5 -21 50.5q0 32 21 52t53 20q33 0 54 -20t21 -52q0 -31 -21 -50.5t-54 -19.5q-32 0 -53 19.5z" />
    <glyph glyph-name="uni01C7.c2sc" horiz-adv-x="599" 
d="M167 510v-417h155v-93h-279v510h124zM348 -83v98q18 -5 35 -5q49 0 49 53v447h123v-461q0 -70 -37 -104.5t-106 -34.5q-35 0 -64 7z" />
    <glyph glyph-name="L_periodcentered.latnCAT.c2sc" horiz-adv-x="372" 
d="M43 510h124v-417h155v-93h-279v510zM340 338q19 -19 19 -50q0 -29 -19 -48t-49 -19t-49.5 19t-19.5 48q0 31 19.5 50t49.5 19t49 -19z" />
    <glyph glyph-name="Ldot.c2sc" horiz-adv-x="372" 
d="M43 510h124v-417h155v-93h-279v510zM340 338q19 -19 19 -50q0 -29 -19 -48t-49 -19t-49.5 19t-19.5 48q0 31 19.5 50t49.5 19t49 -19z" />
    <glyph glyph-name="uni01C8.c2sc" horiz-adv-x="599" 
d="M167 510v-417h155v-93h-279v510h124zM348 -83v98q18 -5 35 -5q49 0 49 53v447h123v-461q0 -70 -37 -104.5t-106 -34.5q-35 0 -64 7z" />
    <glyph glyph-name="uni01CA.c2sc" horiz-adv-x="709" 
d="M304 182v328h102v-510h-152l-109 331v-331h-102v510h156zM458 -83v98q18 -5 35 -5q49 0 49 53v447h123v-461q0 -70 -37 -104.5t-106 -34.5q-35 0 -64 7z" />
    <glyph glyph-name="uni01CB.c2sc" horiz-adv-x="709" 
d="M304 182v328h102v-510h-152l-109 331v-331h-102v510h156zM458 -83v98q18 -5 35 -5q49 0 49 53v447h123v-461q0 -70 -37 -104.5t-106 -34.5q-35 0 -64 7z" />
    <glyph glyph-name="fi.sc" horiz-adv-x="559" 
d="M322 510v-92h-155v-124h141v-91h-141v-203h-124v510h279zM392 0v510h124v-510h-124z" />
    <glyph glyph-name="fl.sc" horiz-adv-x="688" 
d="M322 510v-92h-155v-124h141v-91h-141v-203h-124v510h279zM516 510v-417h155v-93h-279v510h124z" />
    <glyph glyph-name="manat.lf" horiz-adv-x="640" 
d="M370 573q120 -18 183 -130t63 -334v-109h-118v98q1 168 -31.5 259.5t-97.5 113.5v-431h-101v430q-65 -24 -96 -115t-31 -257v-98h-117v109q0 221 62 333t180 131v107h104v-107z" />
    <glyph glyph-name="sheqel.lf" horiz-adv-x="664" 
d="M279 484q76 0 113 -11.5t51 -43t14 -96.5v-130h-92v99q0 42 -5 58t-26 22t-75 6h-108v-388h-105v484h233zM219 0v289h92v-192h13q80 0 120 12.5t60 54t20 130.5v190h105v-188q0 -122 -35.5 -186.5t-103.5 -87t-180 -22.5h-91z" />
    <glyph glyph-name="won.lf" horiz-adv-x="662" 
d="M639 445v-65h-63l-8 -61h71v-65h-79l-33 -254h-132l-62 493l-60 -493h-135l-34 254h-80v65h71l-8 61h-63v65h54l-30 223h123l47 -513l61 513h121l65 -505l51 505h97l-29 -223h55z" />
    <glyph glyph-name="uni0E3F.c2sc" horiz-adv-x="386" 
d="M321 50.5q-36 -39.5 -93 -48.5v-69h-75v67h-113v510h113v63h75v-67q56 -10 84.5 -43t28.5 -81q0 -37 -18.5 -64t-51.5 -42q39 -15 62.5 -47.5t23.5 -75.5q0 -63 -36 -102.5zM152 428v-125h22q25 0 38 15.5t13 42.5q0 35 -11 51t-35 16h-27zM183 82q54 0 54 75
q0 32 -14.5 49.5t-39.5 17.5h-31v-142h31z" />
    <glyph glyph-name="uni20BF.c2sc" horiz-adv-x="384" 
d="M328 61.5q-27 -37.5 -72 -52.5v-76h-62v67h-38v-67h-62v67h-56v510h56v63h62v-63h22h16v63h62v-75q41 -15 62 -45t21 -71q0 -37 -18.5 -64t-51.5 -42q39 -15 62.5 -47.5t23.5 -75.5q0 -54 -27 -91.5zM212 412q-11 16 -34 16h-28v-125h23q24 0 37 15.5t13 42.5
q0 35 -11 51zM150 82h31q54 0 54 74q0 33 -14.5 50.5t-39.5 17.5h-31v-142z" />
    <glyph glyph-name="uni20B5.c2sc" horiz-adv-x="391" 
d="M369 160q-16 -136 -120 -156v-71h-75v70q-66 12 -107.5 74.5t-41.5 178.5t41.5 178t107.5 74v65h75v-66q103 -22 118 -146l-85 -18q-12 41 -28 59t-42 18q-31 0 -48 -38.5t-17 -125.5q0 -165 65 -165q30 0 45.5 19.5t24.5 66.5z" />
    <glyph glyph-name="cent.c2sc" horiz-adv-x="337" 
d="M317 173q-21 -87 -97 -105v-68h-75v68q-55 12 -88 60t-33 130t33 130t88 60v62h75v-63q33 -8 58 -33t37 -68l-84 -26q-14 54 -48 54q-52 0 -52 -116t52 -116q18 0 29 13t19 40z" />
    <glyph glyph-name="colonmonetary.c2sc" horiz-adv-x="389" 
d="M368 160q-12 -113 -88 -146l-5 -79h-63l5 65h-12q-10 0 -28 2l-5 -67h-62l6 91q-42 27 -67 84.5t-25 145.5q0 106 35 166.5t93 80.5l5 64h61l-4 -56q22 -2 41 -6l4 62h61l-6 -92q42 -39 52 -114l-85 -18q-12 41 -28 59t-42 18q-31 0 -48 -38.5t-17 -125.5q0 -165 65 -165
q30 0 45.5 19.5t24.5 66.5z" />
    <glyph glyph-name="currency.c2sc" horiz-adv-x="409" 
d="M333 157l51 -67l-62 -47l-44 57q-33 -19 -75 -19q-41 0 -73 18l-43 -56l-62 47l49 64q-26 46 -26 106q0 59 26 105l-50 65l62 48l44 -57q32 17 73 17q42 0 75 -19l45 59l61 -49l-51 -67q24 -43 24 -102t-24 -103zM256 260q0 88 -53 88q-56 0 -56 -88q0 -89 56 -89
q53 0 53 89z" />
    <glyph glyph-name="dollar.c2sc" horiz-adv-x="385" 
d="M332.5 53.5q-34.5 -36.5 -92.5 -48.5v-72h-75v68q-51 6 -91 36t-55 78l74 44q12 -29 40 -49t60 -20q26 0 40.5 13t14.5 32t-14.5 31.5t-48.5 30.5l-43 21q-57 28 -85.5 64.5t-28.5 90.5q0 52 37.5 90t99.5 45v65h75v-68q73 -18 113 -98l-79 -42q-11 22 -32.5 37t-47.5 15
q-23 0 -35 -11t-12 -28q0 -20 14 -33.5t50 -31.5l57 -28q42 -22 70.5 -58t28.5 -85q0 -52 -34.5 -88.5z" />
    <glyph glyph-name="dong.c2sc" horiz-adv-x="372" 
d="M296 463h53v-57h-53v-315h-93v34q-26 -40 -73 -40q-45 0 -73 38.5t-28 108.5q0 65 28.5 102.5t72.5 37.5q45 0 70 -33v67h-92v57h92v47h96v-47zM201 232q0 36 -9.5 56.5t-27.5 20.5q-19 0 -28 -20.5t-9 -56.5q0 -84 37 -84t37 84zM324 0h-298v57h298v-57z" />
    <glyph glyph-name="Euro.c2sc" horiz-adv-x="407" 
d="M387 139q-13 -80 -52.5 -114t-98.5 -34q-64 0 -112.5 46.5t-62.5 143.5h-42v57h37v18q0 18 1 26h-38v58h43q15 92 63 136t111 44q57 0 97 -33t53 -104l-88 -20q-18 66 -56 66q-47 0 -58 -89h89v-58h-94v-26v-18h94v-57h-90q11 -99 59 -99q40 0 56 75z" />
    <glyph glyph-name="uni20B2.c2sc" horiz-adv-x="410" 
d="M383 271v-216q-29 -20 -64 -34.5t-71 -18.5v-69h-74v72q-69 16 -108.5 79t-39.5 171t40 172t108 79v67h74v-65q50 -7 85.5 -39t46.5 -91l-89 -23q-18 64 -69 64q-73 0 -73 -164q0 -88 21 -126t63 -38q25 0 42 8v90h-63v82h171z" />
    <glyph glyph-name="uni20B4.c2sc" horiz-adv-x="435" 
d="M103.5 29.5q-45.5 38.5 -45.5 98.5q0 31 12 53h-49v57h91q12 10 33 23t37 21h-161v58h215q13 10 19 22.5t6 23.5q0 20 -12.5 32t-33.5 12q-23 0 -40 -11.5t-32 -39.5l-80 41q25 53 67 76.5t93 23.5q71 0 112 -37.5t41 -97.5q0 -23 -9 -45h46v-58h-82q-31 -24 -70 -44h152
v-57h-209q-31 -25 -31 -53q0 -21 15 -34t39 -13q64 0 95 64l77 -42q-26 -60 -72 -86t-104 -26q-74 0 -119.5 38.5z" />
    <glyph glyph-name="uni20AD.c2sc" horiz-adv-x="431" 
d="M411 0h-130l-100 234h-3v-234h-112v234h-44v68h44v208h112v-208h8l112 208h104l-117 -208h110v-68h-93z" />
    <glyph glyph-name="uni20BA.c2sc" horiz-adv-x="425" 
d="M87 0v188l-60 -20v60l60 21v47l-60 -21v61l60 20v154h112v-123l87 29v-60l-87 -30v-47l87 30v-61l-87 -30v-110q42 3 74 32.5t49 81.5l85 -28q-22 -88 -88 -141t-188 -53h-44z" />
    <glyph glyph-name="uni20BC.c2sc" horiz-adv-x="534" 
d="M310 440q105 -15 153.5 -106.5t48.5 -254.5v-79h-108v70q0 114 -22 184.5t-73 90.5v-314h-90v311q-47 -22 -67.5 -91t-20.5 -181v-70h-108v79q0 163 47.5 253t147.5 107v81h92v-80z" />
    <glyph glyph-name="uni20A6.c2sc" horiz-adv-x="445" 
d="M418 330v-58h-48v-44h48v-57h-48v-171h-135l-78 334v-334h-85v171h-46v57h46v44h-46v58h46v180h135l79 -345v345h84v-180h48z" />
    <glyph glyph-name="uni20B1.c2sc" horiz-adv-x="447" 
d="M425 412v-57h-52v-11q0 -20 -1 -30h53v-57h-68q-35 -82 -155 -82h-18v-175h-112v257h-47v57h47v41h-47v57h47v98h130q64 0 104.5 -25.5t56.5 -72.5h62zM203 258q33 0 48.5 23.5t15.5 61.5q0 86 -64 86h-19v-171h19z" />
    <glyph glyph-name="uni20BD.c2sc" horiz-adv-x="416" 
d="M186 208v-48h112v-68h-112v-92h-112v92h-47v68h47v48h-47v79h47v223h145q82 0 129.5 -37t47.5 -112q0 -76 -47.5 -114.5t-129.5 -38.5h-33zM186 428v-141h25q65 0 65 72q0 69 -65 69h-25z" />
    <glyph glyph-name="uni20B9.c2sc" horiz-adv-x="388" 
d="M364 510v-78h-117q41 -24 55 -61h62v-68h-55q-10 -86 -84 -120l110 -183h-132l-87 159q-11 -1 -34 -1h-22v79h20q48 0 75 14t35 52h-166v68h166q-8 34 -35.5 47.5t-77.5 13.5h-53v78h340z" />
    <glyph glyph-name="uni20AA.c2sc" horiz-adv-x="572" 
d="M236 374q64 0 94 -6.5t44 -29.5t14 -75v-99h-78v69q0 23 -4.5 34t-17 15t-39.5 4h-108v-286h-102v374h197zM191 0v218h79v-128h52q43 0 66.5 8t34.5 29.5t11 64.5v182h102v-196q0 -72 -27 -110.5t-80 -53t-143 -14.5h-95z" />
    <glyph glyph-name="sterling.c2sc" horiz-adv-x="391" 
d="M370 82v-82h-337v76q33 12 50.5 41t17.5 55q0 24 -7 48h-72v68h53q-12 50 -12 88q0 65 41 104.5t116 39.5q41 0 77.5 -15t60.5 -47l-57 -67q-19 19 -34 28t-34 9q-23 0 -37.5 -14.5t-14.5 -45.5q0 -18 3.5 -35.5t11.5 -44.5h118v-68h-101q3 -21 3 -38q0 -30 -14 -55.5
t-39 -44.5h207z" />
    <glyph glyph-name="uni20B8.c2sc" horiz-adv-x="386" 
d="M23 428v82h340v-82h-340zM136 302h-113v82h340v-82h-114v-302h-113v302z" />
    <glyph glyph-name="uni20AE.c2sc" horiz-adv-x="374" 
d="M357 510v-82h-114v-91l74 27v-61l-74 -26v-47l74 27v-61l-74 -27v-169h-112v138l-71 -25v60l71 25v48l-71 -24v60l71 25v121h-114v82h340z" />
    <glyph glyph-name="uni20A9.c2sc" horiz-adv-x="563" 
d="M539 342v-57h-53l-5 -45h58v-57h-66l-24 -183h-126l-46 381l-44 -381h-119l-25 183h-65v57h58l-7 45h-51v57h44l-23 168h112l29 -403l41 403h118l48 -380l34 380h89l-22 -168h45z" />
    <glyph glyph-name="yen.c2sc" horiz-adv-x="413" 
d="M291 510h108l-119 -258h70v-57h-86v-45h86v-57h-86v-93h-113v93h-84v57h84v45h-84v57h68l-121 258h127l75 -183z" />
    <glyph glyph-name="florin.c2sc" horiz-adv-x="336" 
d="M215 288h90v-68h-94l-11 -200q-3 -75 -33 -104q-17 -17 -40.5 -23t-58.5 -6q-37 0 -66 7l8 78q14 -1 31 -1q23 0 32 10q8 7 11.5 21.5t5.5 49.5l9 168h-83v68h86l5 96q2 36 9.5 59t23.5 42t40 27t60 8q31 0 67 -7l-10 -78h-32q-19 0 -30 -11q-13 -14 -15 -44z" />
    <glyph glyph-name="zero.zero" 
d="M362 643.5q49 -36.5 77.5 -114t28.5 -195.5q0 -117 -28.5 -194.5t-77.5 -114.5t-112 -37t-112 37t-77.5 114.5t-28.5 194.5q0 118 28.5 195.5t77.5 114t112 36.5t112 -36.5zM178 487l155 -200q1 15 1 47q0 131 -21.5 189t-62.5 58q-52 0 -72 -94zM322 181l-155 201
q-1 -15 -1 -48q0 -131 22 -189t62 -58q52 0 72 94z" />
    <glyph glyph-name="zero.lf.zero" horiz-adv-x="501" 
d="M362 643.5q49 -36.5 77.5 -114t28.5 -195.5q0 -117 -28.5 -194.5t-77.5 -114.5t-111 -37q-63 0 -112 37t-77.5 114.5t-28.5 194.5q0 118 28.5 195.5t77.5 114t112 36.5q62 0 111 -36.5zM179 487l154 -199q1 14 1 46q0 131 -21.5 189t-61.5 58q-52 0 -72 -94zM322 182
l-154 200q-1 -15 -1 -48q0 -131 21.5 -189t62.5 -58q53 0 71 95z" />
    <glyph glyph-name="zero.lf" horiz-adv-x="501" 
d="M139 25q-49 37 -77.5 114.5t-28.5 194.5t28.5 194.5t77.5 114.5t112 37q62 0 111 -37t77.5 -114.5t28.5 -194.5t-28.5 -194.5t-77.5 -114.5t-111 -37q-63 0 -112 37zM312.5 145q21.5 58 21.5 189t-21.5 189t-61.5 58q-41 0 -62.5 -58t-21.5 -189t21.5 -189t62.5 -58
q40 0 61.5 58z" />
    <glyph glyph-name="one.lf" horiz-adv-x="370" 
d="M261 100h95v-100h-324v100h101v389q-40 -18 -101 -18v89q120 4 136 108h93v-568z" />
    <glyph glyph-name="two.lf" horiz-adv-x="443" 
d="M414 107v-107h-386v95q143 139 197.5 230.5t54.5 171.5q0 38 -18.5 61t-51.5 23q-36 0 -56 -29.5t-16 -90.5h-105q-4 108 48 163.5t142 55.5q52 0 94 -23t66.5 -64.5t24.5 -95.5q0 -85 -60 -173t-195 -217h261z" />
    <glyph glyph-name="three.lf" horiz-adv-x="448" 
d="M383 294q35 -45 35 -109q0 -60 -27.5 -104.5t-75.5 -68.5t-107 -24q-79 0 -129 45.5t-60 132.5l95 19q17 -101 92 -101q39 0 63 29.5t24 79.5q0 49 -28 77.5t-71 28.5h-34v94h38q37 0 60.5 27.5t23.5 72.5q0 40 -19.5 65.5t-54.5 25.5q-62 0 -80 -83l-95 21
q14 73 60.5 115.5t123.5 42.5q52 0 94.5 -22t66.5 -62.5t24 -92.5q0 -57 -29 -94.5t-73 -53.5q48 -16 83 -61z" />
    <glyph glyph-name="four.lf" horiz-adv-x="473" 
d="M381 221h74v-92h-74v-129h-124v129h-242v89l234 450h132v-447zM259 221v305l-159 -305h159z" />
    <glyph glyph-name="five.lf" horiz-adv-x="443" 
d="M335 409.5q39 -25.5 61 -74.5t22 -117q0 -74 -28 -126t-75 -78t-102 -26q-76 0 -126 44t-65 126l95 19q12 -44 35 -67t55 -23q39 0 61.5 31t22.5 94q0 61 -22.5 92.5t-55.5 31.5q-52 0 -84 -63l-93 16l40 379h316v-107h-226l-20 -170q36 44 101 44q49 0 88 -25.5z" />
    <glyph glyph-name="six.lf" horiz-adv-x="470" 
d="M360 409q38 -26 59.5 -75t21.5 -115q0 -71 -25.5 -123.5t-70 -80t-100.5 -27.5q-92 0 -152.5 75t-60.5 250q0 112 27.5 195t79 127.5t122.5 44.5q66 0 112.5 -42t58.5 -116l-95 -21q-8 37 -27.5 58.5t-46.5 21.5q-46 0 -71.5 -50t-29.5 -162q17 30 45 48t67 18
q48 0 86 -26zM295 120.5q20 33.5 20 91.5q0 57 -20 90.5t-55 33.5t-55 -33.5t-20 -90.5q0 -58 20 -91.5t55 -33.5t55 33.5z" />
    <glyph glyph-name="seven.lf" horiz-adv-x="405" 
d="M15 668h371v-102q-80 -101 -114 -242t-37 -324h-137q1 163 50 312.5t133 248.5h-266v107z" />
    <glyph glyph-name="eight.lf" horiz-adv-x="481" 
d="M423 280.5q28 -40.5 28 -104.5q0 -56 -29 -98.5t-77.5 -66t-106.5 -23.5t-105.5 22t-75 62t-27.5 94q0 56 27.5 97t78.5 72q-41 27 -64.5 66.5t-23.5 98.5q0 49 24 90t68 65.5t102 24.5q54 0 97.5 -22t68.5 -61.5t25 -89.5q0 -52 -23 -89.5t-64 -65.5q49 -31 77 -71.5z
M192 562q-20 -22 -20 -53q0 -36 19.5 -59t57.5 -44l15 -8q58 45 58 109q0 33 -21.5 55t-55.5 22q-33 0 -53 -22zM299 106.5q26 22.5 26 62.5q0 27 -14 47.5t-33 34t-58 37.5q-35 -23 -55 -54.5t-20 -65.5q0 -38 25.5 -61t63.5 -23q39 0 65 22.5z" />
    <glyph glyph-name="nine.lf" horiz-adv-x="449" 
d="M323 651q46 -29 72 -84.5t26 -132.5q0 -222 -224 -450l-105 35q128 138 172 245q-31 -23 -70 -23q-46 0 -86.5 25.5t-65 73.5t-24.5 112q0 69 25 120.5t70.5 79.5t103.5 28q60 0 106 -29zM274.5 374q19.5 34 19.5 87q0 52 -19.5 86t-55.5 34q-35 0 -55 -34t-20 -86
q0 -53 20 -87t55 -34q36 0 55.5 34z" />
    <glyph glyph-name="zero.osf.zero" horiz-adv-x="470" 
d="M389 423.5q53 -70.5 53 -181.5t-53 -181.5t-153 -70.5q-101 0 -154.5 70.5t-53.5 181.5t53.5 181.5t154.5 70.5q100 0 153 -70.5zM172 349l141 -125v18q0 74 -19.5 117.5t-57.5 43.5q-45 0 -64 -54zM300 139l-142 126v-23q0 -76 19 -119t59 -43q45 0 64 59z" />
    <glyph glyph-name="zero.osf" horiz-adv-x="469" 
d="M81.5 60.5q-53.5 70.5 -53.5 181.5q0 110 53.5 181t153.5 71t153 -70.5t53 -181.5t-53 -181.5t-153 -70.5t-153.5 70.5zM292.5 125q18.5 42 18.5 117q0 74 -19 116.5t-57 42.5q-40 0 -58.5 -42.5t-18.5 -116.5t19 -116.5t58 -42.5t57.5 42z" />
    <glyph glyph-name="one.osf" horiz-adv-x="368" 
d="M256 95h96v-95h-319v95h100v235q-17 -8 -40.5 -11t-59.5 -3v90q57 2 88.5 23t39.5 55h95v-389z" />
    <glyph glyph-name="two.osf" horiz-adv-x="433" 
d="M409 102v-102h-379v99q92 50 142 85.5t73 69t23 73.5q0 33 -17.5 53.5t-47.5 20.5q-40 0 -58 -32t-15 -79h-97q-5 97 42.5 150.5t137.5 53.5q56 0 96 -21.5t60.5 -58t20.5 -80.5q0 -68 -51 -121t-171 -111h241z" />
    <glyph glyph-name="three.osf" horiz-adv-x="432" 
d="M368 135.5q39 -41.5 39 -106.5q0 -54 -26 -95.5t-71.5 -64.5t-103.5 -23q-77 0 -127 41t-63 123l91 20q7 -46 31.5 -68.5t62.5 -22.5q37 0 61 26.5t24 71.5q0 44 -28.5 71t-73.5 27h-30v92h35q36 0 60.5 25t24.5 65q0 39 -20 61.5t-53 22.5q-30 0 -52.5 -21t-31.5 -64
l-88 21q13 74 60 115.5t121 41.5q78 0 128 -46t50 -120q0 -56 -33 -92.5t-81 -48.5q55 -10 94 -51.5z" />
    <glyph glyph-name="four.osf" horiz-adv-x="461" 
d="M367 95h77v-95h-77v-144h-121v144h-226v89l217 395h130v-389zM250 95v262l-144 -262h144z" />
    <glyph glyph-name="five.osf" horiz-adv-x="425" 
d="M321 239.5q38 -24.5 60.5 -71t22.5 -109.5q0 -69 -27.5 -117t-73.5 -72t-101 -24q-72 0 -121 39t-63 110l91 26q11 -43 32 -62.5t53 -19.5q37 0 60.5 29.5t23.5 86.5q0 56 -23.5 86t-58.5 30q-25 0 -45 -14.5t-31 -40.5l-87 15l37 353h309v-100h-220l-18 -160
q33 40 95 40q47 0 85 -24.5z" />
    <glyph glyph-name="six.osf" horiz-adv-x="463" 
d="M357 390q38 -25 59.5 -71.5t21.5 -108.5q0 -67 -25.5 -117t-70.5 -76.5t-103 -26.5q-92 0 -150.5 72t-58.5 241q0 110 27 190.5t78 123.5t120 43t114.5 -39.5t58.5 -114.5l-91 -17q-16 76 -75 76q-96 0 -106 -212q15 28 44.5 45t70.5 17q48 0 86 -25zM292 116.5
q20 33.5 20 85.5q0 54 -19.5 87t-56.5 33t-57 -33.5t-20 -85.5q0 -53 20 -86.5t56 -33.5q37 0 57 33.5z" />
    <glyph glyph-name="seven.osf" horiz-adv-x="402" 
d="M13 484h372v-99q-81 -101 -120 -233.5t-45 -295.5h-137q4 149 60.5 289.5t143.5 238.5h-274v100z" />
    <glyph glyph-name="eight.osf" horiz-adv-x="465" 
d="M437 175q0 -60 -28 -101.5t-74 -62.5t-102 -21q-59 0 -105.5 21.5t-73 60t-26.5 88.5q0 57 30.5 100t78.5 68q-43 29 -68 66.5t-25 91.5q0 48 23.5 88t66.5 63t100 23q52 0 94 -21.5t66.5 -59t24.5 -84.5q0 -51 -24 -89.5t-65 -63.5q107 -71 107 -167zM185.5 546.5
q-19.5 -22.5 -19.5 -54.5q0 -33 19.5 -56t56.5 -44l12 -6q57 49 57 109q0 34 -20 54t-53 20t-52.5 -22.5zM292 103.5q22 22.5 22 59.5t-26 63t-75 55q-34 -21 -53.5 -51t-19.5 -66q0 -39 26 -61t66 -22q38 0 60 22.5z" />
    <glyph glyph-name="nine.osf" horiz-adv-x="440" 
d="M361 434.5q55 -59.5 55 -167.5q0 -124 -67 -236.5t-164 -191.5l-101 33q139 130 182 236q-38 -29 -82 -29q-45 0 -83.5 24t-62 69t-23.5 105q0 65 25 114t69.5 76t103.5 27q93 0 148 -59.5zM272 203.5q20 31.5 20 82.5q0 52 -20 83.5t-56 31.5q-37 0 -57 -31.5t-20 -83.5
q0 -51 20 -82.5t56 -31.5q37 0 57 31.5z" />
    <glyph glyph-name="zero.tosf.zero" 
d="M414.5 423.5q57.5 -70.5 57.5 -181.5t-57.5 -181.5t-164.5 -70.5t-164.5 70.5t-57.5 181.5t57.5 181.5t164.5 70.5t164.5 -70.5zM180 357l161 -143q1 9 1 28q0 74 -23 116.5t-69 42.5q-45 0 -70 -44zM323 134l-163 145q-2 -24 -2 -37q0 -73 23 -116t69 -43q49 0 73 51z
" />
    <glyph glyph-name="zero.tosf" 
d="M85.5 60.5q-57.5 70.5 -57.5 181.5t57.5 181.5t164.5 70.5t164.5 -70.5t57.5 -181.5t-57.5 -181.5t-164.5 -70.5t-164.5 70.5zM319 126q23 43 23 116q0 74 -23 116.5t-69 42.5t-69 -42.5t-23 -116.5q0 -73 23 -116t69 -43t69 43z" />
    <glyph glyph-name="one.tosf" 
d="M320 95h105v-95h-333v95h104v235q-34 -14 -103 -14v90q59 2 91 23t40 55h96v-389z" />
    <glyph glyph-name="two.tosf" 
d="M444 102v-102h-382v99q93 50 143.5 85.5t73.5 69t23 73.5q0 33 -17.5 53.5t-47.5 20.5q-42 0 -60 -32t-14 -79h-98q-4 97 43.5 150.5t137.5 53.5q56 0 96.5 -21.5t61 -58t20.5 -80.5q0 -68 -51 -121t-173 -111h244z" />
    <glyph glyph-name="three.tosf" 
d="M402 135.5q39 -41.5 39 -106.5q0 -54 -26 -95.5t-72 -64.5t-104 -23q-77 0 -127 41t-62 123l91 20q7 -46 31 -68.5t62 -22.5t61.5 26.5t23.5 71.5q0 44 -28 71t-73 27h-30v92h34q36 0 60.5 25t24.5 65q0 39 -19.5 61.5t-52.5 22.5q-30 0 -52.5 -21t-31.5 -64l-88 21
q13 74 59.5 115.5t120.5 41.5q78 0 128.5 -46t50.5 -120q0 -56 -33 -92.5t-81 -48.5q55 -10 94 -51.5z" />
    <glyph glyph-name="four.tosf" 
d="M385 95h74v-95h-74v-144h-120v144h-222v89l212 395h130v-389zM268 95v260l-139 -260h139z" />
    <glyph glyph-name="five.tosf" 
d="M358 239.5q38 -24.5 60.5 -71t22.5 -109.5q0 -69 -27.5 -117t-73.5 -72t-101 -24q-72 0 -120.5 39t-62.5 110l91 26q10 -43 31 -62.5t53 -19.5q38 0 61 29.5t23 86.5q0 56 -23.5 86t-57.5 30q-26 0 -46 -14.5t-31 -40.5l-87 15l38 353h308v-100h-219l-19 -159
q33 39 95 39q47 0 85 -24.5z" />
    <glyph glyph-name="six.tosf" 
d="M372.5 389.5q37.5 -25.5 58.5 -72t21 -107.5q0 -67 -25 -117t-69 -76.5t-101 -26.5q-89 0 -146 72t-57 241q0 110 26.5 190.5t75.5 123.5t117 43t112.5 -39.5t57.5 -114.5l-91 -17q-14 76 -72 76q-91 0 -101 -211q15 28 43 44.5t67 16.5q46 0 83.5 -25.5zM307.5 115
q18.5 32 18.5 87t-18.5 87.5t-52.5 32.5q-36 0 -54.5 -32.5t-18.5 -86.5t18.5 -87t53.5 -33t53.5 32z" />
    <glyph glyph-name="seven.tosf" 
d="M62 484h372v-99q-81 -101 -120 -233.5t-45 -295.5h-137q4 149 60 289.5t144 238.5h-274v100z" />
    <glyph glyph-name="eight.tosf" 
d="M455 175q0 -60 -28 -101.5t-74.5 -62.5t-102.5 -21q-59 0 -105.5 21.5t-73 60t-26.5 88.5q0 57 31 100t79 67q-43 30 -68 68t-25 91q0 48 23.5 88t66.5 63t100 23q52 0 94 -21.5t66.5 -59t24.5 -84.5q0 -51 -24 -89.5t-65 -63.5q107 -71 107 -167zM203 546.5
q-19 -22.5 -19 -54.5q0 -34 19.5 -56.5t56.5 -43.5l12 -6q56 48 56 109q0 34 -20 54t-53 20t-52 -22.5zM309.5 103.5q22.5 22.5 22.5 59.5t-26 63t-75 55q-74 -47 -74 -117q0 -39 26 -61t66 -22q38 0 60.5 22.5z" />
    <glyph glyph-name="nine.tosf" 
d="M387 434.5q54 -59.5 54 -167.5q0 -124 -65 -236.5t-159 -191.5l-100 33q64 65 108.5 122.5t67.5 114.5q-33 -30 -79 -30q-43 0 -80.5 24t-60.5 69t-23 105q0 65 24 114t68 76t101 27q90 0 144 -59.5zM299 202.5q19 30.5 19 83.5t-19 84t-53 31q-35 0 -54 -31t-19 -84
t18.5 -83.5t53.5 -30.5t54 30.5z" />
    <glyph glyph-name="zero.c2sc.zero" horiz-adv-x="427" 
d="M308 491q43 -29 68 -88.5t25 -147.5t-25 -147.5t-67.5 -88.5t-95.5 -29q-52 0 -94.5 29t-67.5 88.5t-25 147.5t25 147.5t67.5 88.5t94.5 29t95 -29zM162 372l114 -143v26q0 91 -16 130.5t-47 39.5q-37 0 -51 -53zM264 137l-114 143v-25q0 -91 16 -130.5t47 -39.5
q37 0 51 52z" />
    <glyph glyph-name="zero.c2sc" horiz-adv-x="427" 
d="M118.5 19q-42.5 29 -67.5 88.5t-25 147.5t25 147.5t67.5 88.5t94.5 29t95 -29t68 -88.5t25 -147.5t-25 -147.5t-67.5 -88.5t-95.5 -29q-52 0 -94.5 29zM255.5 126q14.5 40 14.5 129t-14.5 129t-42.5 40q-57 0 -57 -169t57 -169q28 0 42.5 40z" />
    <glyph glyph-name="one.c2sc" horiz-adv-x="356" 
d="M249 93h95v-93h-316v93h100v260q-39 -13 -100 -12v79q64 1 96.5 25t41.5 65h83v-417z" />
    <glyph glyph-name="two.c2sc" horiz-adv-x="376" 
d="M350 99v-99h-326v93q118 99 157.5 161.5t39.5 114.5q0 28 -13.5 41.5t-34.5 13.5q-53 0 -49 -76h-97q-2 87 43 129.5t121 42.5q66 0 110 -39.5t44 -107.5q0 -65 -54 -133t-150 -141h209z" />
    <glyph glyph-name="three.c2sc" horiz-adv-x="376" 
d="M322 224.5q30 -32.5 30 -82.5q0 -43 -22.5 -78t-62.5 -54.5t-89 -19.5q-67 0 -110 38t-50 111l89 18q5 -37 20 -56t45 -19q29 0 44 19.5t15 48.5q0 36 -18 53.5t-51 17.5h-27v81h29q58 0 58 69q0 23 -12.5 40t-37.5 17q-48 0 -60 -57l-87 17q12 63 51 97.5t106 34.5
q68 0 111.5 -39.5t43.5 -99.5q0 -43 -25 -71.5t-63 -40.5q43 -12 73 -44.5z" />
    <glyph glyph-name="four.c2sc" horiz-adv-x="404" 
d="M327 176h55v-88h-55v-88h-122v88h-191v87l183 335h130v-334zM208 176v215l-116 -215h116z" />
    <glyph glyph-name="five.c2sc" horiz-adv-x="374" 
d="M314 287q39 -44 39 -119q0 -57 -23.5 -97t-63.5 -60.5t-87 -20.5q-64 0 -106.5 38t-51.5 102l88 18q5 -28 22 -45t44 -17q26 0 40 21t14 59q0 84 -55 84q-19 0 -33 -11.5t-21 -31.5l-88 12l31 291h267v-99h-181l-15 -112q26 32 79 32q62 0 101 -44z" />
    <glyph glyph-name="six.c2sc" horiz-adv-x="392" 
d="M329.5 285.5q37.5 -43.5 37.5 -116.5q0 -55 -21.5 -95.5t-58.5 -62t-82 -21.5q-76 0 -127 58t-51 197q0 124 49.5 199.5t138.5 75.5q55 0 94 -34.5t51 -93.5l-85 -22q-11 58 -59 58q-32 0 -52.5 -36t-23.5 -115q13 24 37.5 38t56.5 14q58 0 95.5 -43.5zM251 163
q0 85 -51 85t-51 -85q0 -77 51 -77t51 77z" />
    <glyph glyph-name="seven.c2sc" horiz-adv-x="340" 
d="M14 510h309v-98q-68 -79 -95 -179t-28 -233h-125q1 114 44.5 225.5t114.5 185.5h-220v99z" />
    </font>
</defs>
</svg>
